<?xml version="1.0" encoding="UTF-8"?>
<svg xmlns="http://www.w3.org/2000/svg" xmlns:xlink="http://www.w3.org/1999/xlink" version="1.2" >
<font id="Mercedes Benz Icons Flat">
<font-face  font-family="Mercedes Benz Icons" units-per-em="1000" ascent="800" descent="-200" font-style="normal" font-weight="400" font-stretch="normal" cap-height="700" x-height="500" underline-position="-75" underline-thickness="50" />
<missing-glyph  horiz-adv-x="500" d="" />
<glyph glyph-name="space" unicode="&#x20;" horiz-adv-x="500" d="" />
<glyph glyph-name="uniE001" unicode="&#xe001;" d="M657 0 L533 0 L533 221 L359 221 L359 0 L133 0 L133 317 L53 238 L0 291 L395 686 L790 291 L737 238 L657 317 L657 0 Z M399 1 L399 181 L492 181 L492 1 L399 1 Z " />
<glyph glyph-name="uniE002" unicode="&#xe002;" d="M0 517 L75 517 L85 622 L267 622 L278 517 L636 517 L636 103 L0 103 L0 517 Z M140 562 L135 517 L217 517 L213 562 L140 562 Z M545 407 Q558 407 567 416 Q576 425 576 438 Q576 452 567 460.5 Q558 469 545 469 Q532 469 523 460.5 Q514 452 514 438 Q514 425 523 416 Q532 407 545 407 Z M314 157 Q354 157 387.5 177 Q421 197 441 230.5 Q461 264 461 304 Q461 344 441 377.5 Q421 411 387.5 430.5 Q354 450 314 450 Q275 450 241 430.5 Q207 411 187.5 377.5 Q168 344 168 304 Q168 264 188 230.5 Q208 197 241.5 177 Q275 157 314 157 Z M314 410 Q358 410 389.5 379 Q421 348 421 304 Q421 260 389.5 228.5 Q358 197 314 197 Q270 197 239 228.5 Q208 260 208 304 Q208 348 239 379 Q270 410 314 410 Z " />
<glyph glyph-name="uniE003" unicode="&#xe003;" d="M0 672 L464 672 L464 487 L0 487 L0 672 Z M176 579 L176 619 L136 619 L136 539 L328 539 L328 619 L288 619 L288 579 L176 579 Z M0 256 L0 441 L464 441 L464 256 L0 256 Z M288 388 L288 348 L176 348 L176 388 L136 388 L136 308 L328 308 L328 388 L288 388 Z M0 25 L0 210 L464 210 L464 25 L0 25 Z M288 157 L288 117 L176 117 L176 157 L136 157 L136 77 L328 77 L328 157 L288 157 Z " />
<glyph glyph-name="uniE004" unicode="&#xe004;" d="M146 621 L530 621 L530 515 L146 515 L146 621 Z M555 243 L123 243 L123 121 L0 121 L0 472 L677 472 L677 121 L555 121 L555 243 Z M599 369 Q610 369 618.5 377.5 Q627 386 627 397 Q627 409 618.5 417.5 Q610 426 599 426 Q587 426 578.5 417.5 Q570 409 570 397 Q570 386 578.5 377.5 Q587 369 599 369 Z M163 205 L515 205 L515 80 L163 80 L163 205 Z " />
<glyph glyph-name="uniE005" unicode="&#xe005;" d="M400 168 L349 147 L333 56 L256 56 L240 147 L189 168 L113 114 L59 169 L112 245 L91 296 L0 311 L0 389 L91 405 L112 456 L59 531 L113 586 L189 533 L240 554 L256 645 L333 645 L349 554 L400 533 L475 586 L530 531 L477 456 L498 405 L589 389 L589 312 L498 296 L477 245 L530 169 L475 115 L400 168 Z M299 234 Q345 234 378.5 267.5 Q412 301 412 347 Q412 393 378.5 426.5 Q345 460 299 460 Q253 460 219.5 426.5 Q186 393 186 347 Q186 301 219.5 267.5 Q253 234 299 234 Z " />
<glyph glyph-name="uniE006" unicode="&#xe006;" d="M186 172 L6 29 L0 29 L0 668 L373 668 L373 29 L367 29 L186 172 Z M187 500 Q204 500 215.5 511.5 Q227 523 227 540 Q227 557 215.5 568.5 Q204 580 187 580 Q170 580 158.5 568.5 Q147 557 147 540 Q147 523 158.5 511.5 Q170 500 187 500 Z " />
<glyph glyph-name="uniE007" unicode="&#xe007;" d="M295 374 L8 563 L588 563 L295 374 Z M0 520 L295 324 L596 521 L596 150 L0 150 L0 520 Z " />
<glyph glyph-name="uniE008" unicode="&#xe008;" d="M409 285 L116 285 L116 74 L108 74 L0 167 L0 615 L531 615 L531 74 L409 74 L409 285 Z M407 507 L407 547 L116 547 L116 507 L407 507 Z M409 426 L409 466 L116 466 L116 426 L409 426 Z M185 217 L273 217 L273 73 L185 73 L185 217 Z " />
<glyph glyph-name="uniE011" unicode="&#xe011;" d="M321 694 Q321 709 336 709 L703 709 Q718 709 718 694 L718 141 Q718 126 703 126 L320 126 L321 694 Z M1 472 Q1 520 32.5 557.5 Q64 595 120 595 L160 595 L160 651 L287 556 L160 460 L160 521 L112 521 Q73 521 45.5 512 Q18 503 7 472 L1 472 Z M410 619 L410 216 L628 216 L628 619 L410 619 Z M15 -9 Q0 -9 0 6 L0 374 Q0 389 15 389 L276 389 L276 299 L90 299 L90 81 L593 81 L593 6 Q593 -9 578 -9 L15 -9 Z " />
<glyph glyph-name="uniE012" unicode="&#xe012;" d="M490 710 Q539 710 576 679 Q613 648 613 592 L613 551 L670 551 L574 425 L479 551 L539 551 L539 600 Q539 639 530.5 666.5 Q522 694 490 705 L490 710 Z M90 618 L90 115 L15 116 Q0 116 0 131 L0 693 Q0 708 15 708 L383 708 Q398 708 398 693 L398 432 L308 432 L308 618 L90 618 Z M150 -10 Q135 -10 135 5 L135 373 Q135 388 150 388 L703 388 Q718 388 718 373 L718 5 Q718 -10 703 -10 L150 -10 Z M226 298 L226 80 L629 80 L629 298 L226 298 Z " />
<glyph glyph-name="uniE013" unicode="&#xe013;" d="M321 204 L321 136 L519 136 L519 565 L321 565 L321 501 L229 571 L229 661 L613 661 L613 40 L229 40 L229 134 L321 204 Z M0 231 Q0 276 19.5 317 Q39 358 77.5 383.5 Q116 409 171 409 L229 409 L229 490 L411 353 L229 215 L229 302 L159 302 Q102 302 63 289.5 Q24 277 8 231 L0 231 Z " />
<glyph glyph-name="uniE014" unicode="&#xe014;" d="M253 475 Q253 530 278.5 568.5 Q304 607 345 626.5 Q386 646 431 646 L431 639 Q386 623 373 583 Q360 543 360 487 L360 417 L447 417 L309 235 L172 417 L253 417 L253 475 Z M0 285 L85 285 L95 165 L527 165 L537 285 L621 285 L621 70 L0 70 L0 285 Z " />
<glyph glyph-name="uniE015" unicode="&#xe015;" d="M448 454 L366 454 L366 397 Q366 342 340.5 303.5 Q315 265 274 245.5 Q233 226 188 226 L188 234 Q234 250 246.5 289 Q259 328 259 385 L259 454 L172 454 L310 636 L448 454 Z M0 285 L86 285 L96 165 L527 165 L538 285 L622 285 L622 70 L0 70 L0 285 Z " />
<glyph glyph-name="uniE016" unicode="&#xe016;" d="M0 40 L0 661 L385 661 L385 496 L292 496 L292 566 L94 566 L94 136 L292 136 L292 198 L385 198 L385 40 L0 40 Z M362 298 Q305 298 265.5 285.5 Q226 273 210 227 L202 227 Q202 272 221.5 312.5 Q241 353 279.5 378.5 Q318 404 373 404 L431 404 L431 486 L613 349 L431 211 L431 298 L362 298 Z " />
<glyph glyph-name="uniE017" unicode="&#xe017;" d="M238 349 Q238 394 257.5 435 Q277 476 315.5 501.5 Q354 527 409 527 L468 527 L468 609 L650 471 L468 333 L468 420 L398 420 Q342 420 302 407 Q262 394 246 349 L238 349 Z M0 526 L189 526 L189 433 L96 433 L96 236 L525 236 L525 302 L621 375 L621 141 L0 141 L0 526 Z " />
<glyph glyph-name="uniE021" unicode="&#xe021;" d="M0 590 Q0 601 10.5 624 Q21 647 53 665 Q82 682 108 682 Q122 682 131.5 678.5 Q141 675 144 672 L167 635 Q129 631 86 605.5 Q43 580 21 549 L0 585 L0 590 Z M396 239 Q359 235 314.5 209.5 Q270 184 250 153 L44 509 Q57 538 107 573 Q138 595 190 595 L396 239 Z M335 176 Q359 190 377.5 194.5 Q396 199 414 199 L434 39 L406 23 L275 118 Q291 149 335 176 Z " />
<glyph glyph-name="uniE022" unicode="&#xe022;" d="M268 632 Q319 586 319 518 Q319 470 295 428 L466 134 Q481 108 481 83 Q481 58 463.5 39.5 Q446 21 417 21 Q392 21 377.5 31.5 Q363 42 350 66 L180 360 Q150 360 116.5 373 Q83 386 56 414.5 Q29 443 20 488 L0 587 L26 602 L78 513 Q89 493 107.5 483 Q126 473 147 473 Q182 473 205 498 Q228 523 228 555 Q228 577 218 593 L166 682 L194 698 L268 632 Z " />
<glyph glyph-name="uniE023" unicode="&#xe023;" d="M214 692 Q270 692 319.5 663.5 Q369 635 398.5 586 Q428 537 428 478 Q428 397 375 338 L499 126 Q515 98 515 72 Q515 45 495 26 Q475 7 446 7 Q425 7 407 19.5 Q389 32 376 55 L253 268 Q236 264 214 264 Q156 264 107 293 Q58 322 29 371 Q0 420 0 478 Q0 536 29 585 Q58 634 107 663 Q156 692 214 692 Z M348 478 Q348 515 330 545.5 Q312 576 281 594 Q250 612 214 612 Q177 612 146.5 594 Q116 576 98 545.5 Q80 515 80 478 Q80 442 98 411 Q116 380 147 362 Q178 344 214 344 Q250 344 281 362 Q312 380 330 411 Q348 442 348 478 Z " />
<glyph glyph-name="uniE024" unicode="&#xe024;" d="M372 228 Q373 229 378 229 Q392 229 411.5 206.5 Q431 184 446 153.5 Q461 123 461 101 Q461 89 455 84 L365 31 Q361 27 351 27 Q300 27 215.5 130 Q131 233 65.5 366 Q0 499 0 577 Q0 615 18 625 L108 677 Q116 674 132 664 Q156 650 174 621 Q197 580 197 553 Q197 541 191 536 L132 501 Q137 475 144 447 Q162 382 193 329 Q226 272 271 229 Q289 211 312 193 L372 228 Z " />
<glyph glyph-name="uniE025" unicode="&#xe025;" d="M436 656 L456 565 L265 565 L284 656 L436 656 Z M191 566 L163 538 L91 609 L120 637 L191 566 Z M628 609 L557 538 L529 566 L600 637 L628 609 Z M480 513 Q511 486 528.5 449 Q546 412 546 370 Q546 320 521 277 Q496 234 453.5 209 Q411 184 360 184 Q310 184 267 209 Q224 234 199 277 Q174 320 174 370 Q174 412 191.5 449 Q209 486 240 513 L315 513 L338 419 L383 419 L405 513 L480 513 Z M101 391 L101 351 L0 351 L0 391 L101 391 Z M620 391 L721 391 L721 351 L620 351 L620 391 Z M91 130 L163 202 L191 173 L120 102 L91 130 Z M529 173 L557 202 L628 130 L600 111 L529 173 Z M340 10 L340 111 L380 111 L380 10 L340 10 Z " />
<glyph glyph-name="uniE026" unicode="&#xe026;" d="M262 610 L282 519 L91 519 L110 610 L262 610 Z M306 467 Q337 440 354.5 403 Q372 366 372 324 Q372 274 347 231 Q322 188 279.5 163 Q237 138 186 138 Q136 138 93 163 Q50 188 25 231 Q0 274 0 324 Q0 366 17.5 403 Q35 440 66 467 L141 467 L164 373 L209 373 L231 467 L306 467 Z " />
<glyph glyph-name="uniE027" unicode="&#xe027;" d="M190 476 L378 587 L378 116 L190 228 L190 476 Z M609 295 L524 220 L478 266 L553 352 L478 437 L524 483 L609 408 L695 483 L741 437 L666 352 L741 266 L695 220 L609 295 Z M144 468 L144 220 L0 255 L0 448 L144 468 Z " />
<glyph glyph-name="uniE028" unicode="&#xe028;" d="M697 350 Q697 414 675 473 Q653 532 611 580 L667 614 Q713 556 737.5 489 Q762 422 762 350 Q762 203 667 86 L611 119 Q653 167 675 226 Q697 285 697 350 Z M191 475 L379 587 L379 116 L191 227 L191 475 Z M609 350 Q609 242 548 156 L492 189 Q544 260 544 350 Q544 440 492 510 L548 543 Q609 458 609 350 Z M145 468 L145 235 L0 255 L0 448 L145 468 Z " />
<glyph glyph-name="uniE029" unicode="&#xe029;" d="M191 475 L379 586 L379 115 L191 227 L191 475 Z M609 349 Q609 241 548 156 L492 189 Q544 259 544 349 Q544 439 492 509 L548 542 Q609 457 609 349 Z M145 467 L145 234 L0 254 L0 447 L145 467 Z " />
<glyph glyph-name="uniE031" unicode="&#xe031;" d="M62 59 L29 510 L0 510 L0 585 L173 585 L185 661 L348 661 L360 585 L533 585 L533 510 L504 510 L471 59 L62 59 Z M401 134 L429 509 L104 509 L132 134 L401 134 Z M238 454 L238 188 L188 188 L188 454 L238 454 Z M349 454 L349 188 L299 188 L299 454 L349 454 Z " />
<glyph glyph-name="uniE032" unicode="&#xe032;" d="M657 351 Q657 251 607.5 176 Q558 101 482 61.5 Q406 22 329 22 Q233 22 158 69 Q83 116 41.5 192 Q0 268 0 351 Q0 431 40 507 Q80 583 155 631 Q230 679 329 679 Q429 679 503.5 629.5 Q578 580 617.5 504 Q657 428 657 351 Z M329 604 Q271 604 220 579.5 Q169 555 133 512 Q97 469 84 415 Q197 477 329 477 Q460 477 573 416 Q550 498 483 551 Q416 604 329 604 Z M376 363 Q376 383 362.5 396.5 Q349 410 329 410 Q309 410 295.5 396.5 Q282 383 282 363 Q282 343 295.5 329.5 Q309 316 329 316 Q349 316 362.5 329.5 Q376 343 376 363 Z M156 205 Q170 214 176 222.5 Q182 231 182 245 Q182 256 168.5 285 Q155 314 137 337 Q119 360 104 360 Q85 360 75 350 Q75 306 90 265 Q105 224 132 191 Q128 189 156 205 Z M501 205 Q529 189 525 191 Q552 224 567 264.5 Q582 305 582 350 Q572 360 553 360 Q537 360 518.5 338.5 Q500 317 487.5 289 Q475 261 475 245 Q475 231 481 222.5 Q487 214 501 205 Z M329 97 Q417 97 485 151 Q414 195 329 195 Q244 195 173 150 Q242 97 329 97 Z " />
<glyph glyph-name="uniE033" unicode="&#xe033;" d="M616 250 L616 173 L271 173 L101 559 L0 567 L0 644 L156 644 L193 560 L671 560 L636 314 L302 314 L326 250 L616 250 Z M599 495 L222 495 L240 455 L593 455 L599 495 Z M256 419 L273 379 L582 379 L588 419 L256 419 Z M315 137 Q333 137 346 124.5 Q359 112 359 94 Q359 76 346 63 Q333 50 315 50 Q297 50 284 63 Q271 76 271 94 Q271 112 284 124.5 Q297 137 315 137 Z M573 137 Q591 137 603.5 124.5 Q616 112 616 94 Q616 76 603.5 63 Q591 50 573 50 Q554 50 541.5 63 Q529 76 529 94 Q529 112 541.5 124.5 Q554 137 573 137 Z " />
<glyph glyph-name="uniE034" unicode="&#xe034;" d="M521 462 Q521 406 497 354 Q473 302 430 264.5 Q387 227 332 211 L285 0 L237 0 L190 211 Q135 227 91.5 264.5 Q48 302 24 353.5 Q0 405 0 462 Q0 531 35 591 Q70 651 130 686.5 Q190 722 261 722 Q331 722 390.5 686.5 Q450 651 485.5 591.5 Q521 532 521 462 Z M261 286 Q309 286 349 310 Q389 334 412.5 374.5 Q436 415 436 462 Q436 510 412.5 550 Q389 590 349 613.5 Q309 637 261 637 Q214 637 173.5 613.5 Q133 590 109 550 Q85 510 85 462 Q85 415 109 374.5 Q133 334 173.5 310 Q214 286 261 286 Z M261 502 Q278 502 289.5 490.5 Q301 479 301 462 Q301 445 289.5 433.5 Q278 422 261 422 Q244 422 232.5 433.5 Q221 445 221 462 Q221 479 232.5 490.5 Q244 502 261 502 Z " />
<glyph glyph-name="uniE035" unicode="&#xe035;" d="M580 386 Q583 365 583 344 Q583 265 542.5 198 Q502 131 434.5 92 Q367 53 291 53 Q213 53 146 93.5 Q79 134 39.5 201.5 Q0 269 0 347 Q0 441 56.5 517 Q113 593 208 625 L231 543 Q165 523 125 467.5 Q85 412 85 344 Q85 289 113.5 241.5 Q142 194 189 166 Q236 138 291 138 Q352 138 399 168.5 Q446 199 471.5 247 Q497 295 497 346 Q497 397 470 449.5 Q443 502 397 522 L341 448 L279 667 L508 667 L449 590 Q503 554 537 501.5 Q571 449 580 386 Z " />
<glyph glyph-name="uniE036" unicode="&#xe036;" d="M545 296 Q545 281 530 281 L249 281 L86 175 L86 281 L15 281 Q0 281 0 296 L0 587 Q0 602 15 602 L530 602 Q545 602 545 587 L545 296 Z M92 509 L92 469 L436 469 L436 509 L92 509 Z M92 373 L318 373 L318 413 L92 413 L92 373 Z M731 393 Q746 393 746 378 L746 156 Q746 141 731 141 L678 141 L678 58 L552 141 L333 141 Q318 141 318 156 L318 226 L585 226 Q600 226 600 241 L600 393 L731 393 Z " />
<glyph glyph-name="uniE037" unicode="&#xe037;" d="M545 238 Q545 223 530 223 L249 223 L86 117 L86 223 L15 223 Q0 223 0 238 L0 529 Q0 544 15 544 L530 544 Q545 544 545 529 L545 238 Z M92 451 L92 411 L436 411 L436 451 L92 451 Z M92 315 L318 315 L318 355 L92 355 L92 315 Z " />
<glyph glyph-name="uniE038" unicode="&#xe038;" d="M0 668 L465 668 L465 32 L0 32 L0 668 Z M373 516 L373 556 L92 556 L92 516 L373 516 Z M373 439 L373 479 L92 479 L92 439 L373 439 Z M373 361 L373 401 L92 401 L92 361 L373 361 Z M373 283 L373 323 L92 323 L92 283 L373 283 Z M228 206 L228 246 L92 246 L92 206 L228 206 Z " />
<glyph glyph-name="uniE039" unicode="&#xe039;" d="M300 344 L151 344 L151 648 L616 648 L616 72 L300 72 L300 344 Z M524 496 L524 536 L244 536 L244 496 L524 496 Z M524 419 L524 459 L244 459 L244 419 L524 419 Z M524 341 L524 381 L354 381 L354 341 L524 341 Z M524 263 L524 303 L354 303 L354 263 L524 263 Z M81 129 Q81 184 106.5 222.5 Q132 261 173 280.5 Q214 300 259 300 L259 293 Q214 277 201 237 Q188 197 188 141 L188 71 L275 71 L137 -111 L0 71 L81 71 L81 129 Z M524 186 L524 226 L441 226 L441 186 L524 186 Z " />
<glyph glyph-name="uniE041" unicode="&#xe041;" d="M334 549 Q295 588 237 593 Q249 624 277 643 Q305 662 340 662 Q385 662 418 629.5 Q451 597 451 552 Q451 516 431 487.5 Q411 459 378 448 Q378 475 366 502 Q354 529 334 549 Z M227 331 Q182 331 149.5 364 Q117 397 117 442 Q117 487 149.5 520 Q182 553 227 553 Q273 553 305.5 520 Q338 487 338 442 Q338 397 305.5 364 Q273 331 227 331 Z M369 390 Q424 386 469 366 Q514 346 540 315 Q566 284 566 249 L566 126 L494 126 L494 139 Q494 201 441.5 248 Q389 295 307 314 Q331 328 343 344.5 Q355 361 369 390 Z M226 282 Q288 282 340 263 Q392 244 423 211 Q454 178 454 139 L454 17 L0 17 L0 139 Q0 178 30.5 211 Q61 244 112.5 263 Q164 282 226 282 Z " />
<glyph glyph-name="uniE042" unicode="&#xe042;" d="M238 398 Q190 398 156.5 432 Q123 466 123 514 Q123 561 156.5 595 Q190 629 238 629 Q286 629 320 595 Q354 561 354 514 Q354 466 320 432 Q286 398 238 398 Z M236 347 Q300 347 354.5 327 Q409 307 441 272.5 Q473 238 473 198 L473 70 L0 70 L0 198 Q0 238 31.5 272.5 Q63 307 117.5 327 Q172 347 236 347 Z " />
<glyph glyph-name="uniE043" unicode="&#xe043;" d="M660 537 Q647 537 638 547 Q629 557 629 571 Q629 585 638 595 Q647 605 660 605 Q673 605 682 595 Q691 585 691 571 Q691 557 682 547 Q673 537 660 537 Z M660 590 Q644 590 644 571 Q644 552 660 552 Q676 552 676 571 Q676 590 660 590 Z M248 408 Q275 408 275 437 Q275 453 263.5 459 Q252 465 227 465 L227 495 Q250 495 261 501 Q272 507 272 522 Q272 545 251 545 Q229 545 226 521 L198 521 Q199 548 213.5 562.5 Q228 577 254 577 Q277 577 291 563 Q305 549 305 526 Q305 495 277 482 Q308 473 308 437 Q308 410 291.5 393 Q275 376 249 376 Q221 376 205.5 392 Q190 408 190 437 L220 437 Q220 408 248 408 Z M552 377 Q522 377 506 403.5 Q490 430 490 479 Q490 525 506.5 551 Q523 577 552 577 Q581 577 598 551 Q615 525 615 477 Q615 429 598 403 Q581 377 552 377 Z M403 377 Q376 377 359 397 Q342 417 342 449 Q342 478 353 500.5 Q364 523 404 576 L440 576 Q405 527 397 512 Q400 513 409 513 Q433 513 447.5 495 Q462 477 462 448 Q462 416 445.5 396.5 Q429 377 403 377 Z M534 535 Q523 517 523 478 Q523 446 530 426.5 Q537 407 552 407 Q567 407 574.5 426.5 Q582 446 582 477 Q582 508 574.5 527.5 Q567 547 552 547 Q540 547 534 535 Z M402 484 Q390 484 382.5 474 Q375 464 375 446 Q375 429 382.5 418.5 Q390 408 402 408 Q414 408 421.5 418.5 Q429 429 429 446 Q429 463 421.5 473.5 Q414 484 402 484 Z M314 112 Q185 127 92.5 175.5 Q0 224 0 316 Q0 354 23.5 387.5 Q47 421 98 444 L98 405 Q69 376 69 353 Q69 325 102.5 297 Q136 269 192.5 248.5 Q249 228 314 220 L314 282 L467 166 L314 50 L314 112 Z M684 444 Q735 420 758.5 387 Q782 354 782 316 Q782 224 686.5 174 Q591 124 465 112 L535 165 L464 220 Q532 228 589 248 Q646 268 680 296 Q714 324 714 353 Q714 375 684 405 L684 444 Z " />
<glyph glyph-name="uniE044" unicode="&#xe044;" d="M0 544 L625 544 L625 156 L0 156 L0 544 Z M423 350 L274 445 L274 255 L423 350 Z " />
<glyph glyph-name="uniE045" unicode="&#xe045;" d="M296 645 Q377 645 444.5 605.5 Q512 566 551.5 498.5 Q591 431 591 350 Q591 285 564.5 227.5 Q538 170 491.5 128.5 Q445 87 385 69 L430 142 L458 147 L482 227 Q486 226 446 237 Q440 239 424.5 244.5 Q409 250 407 254 L388 281 L373 302 L318 310 L285 317 L275 353 L236 353 L242 381 L288 390 L296 367 L321 362 L314 405 L372 455 L403 455 L438 472 L412 522 L371 538 L348 506 L308 525 L283 570 L292 645 L296 645 Z M344 59 Q323 55 296 55 Q216 55 148 94.5 Q80 134 40 201.5 Q0 269 0 350 Q0 419 29.5 479.5 Q59 540 110.5 581.5 Q162 623 227 637 L216 581 L160 563 L110 541 L110 508 L150 524 L173 508 L173 469 L152 433 L195 342 L308 282 L288 224 L336 169 L344 59 Z " />
<glyph glyph-name="uniE046" unicode="&#xe046;" d="M271 204 L132 103 L86 136 L139 299 L0 399 L18 453 L189 453 L242 618 L299 618 L352 453 L523 453 L541 399 L402 299 L455 137 L409 103 L271 204 Z " />
<glyph glyph-name="uniE048" unicode="&#xe048;" d="M268 618 Q341 618 402.5 582 Q464 546 500 484.5 Q536 423 536 351 Q536 278 500 216.5 Q464 155 402.5 119 Q341 83 268 83 Q195 83 133.5 119 Q72 155 36 216.5 Q0 278 0 351 Q0 423 36 484.5 Q72 546 133.5 582 Q195 618 268 618 Z M230 512 L230 296 L408 296 L408 341 L276 351 L276 512 L230 512 Z " />
<glyph glyph-name="uniE051" unicode="&#xe051;" d="M466 231 Q487 217 498.5 195.5 Q510 174 510 151 Q510 110 481 83 Q452 56 415 56 Q376 56 348.5 85 Q321 114 321 150 Q321 156 323 170 L153 276 Q142 265 126.5 260 Q111 255 95 255 Q58 255 29 282.5 Q0 310 0 350 Q0 387 27.5 415.5 Q55 444 95 444 Q128 444 153 425 L323 531 Q321 545 321 550 Q321 586 348.5 615 Q376 644 415 644 Q453 644 481.5 617.5 Q510 591 510 550 Q510 512 483.5 483.5 Q457 455 416 455 Q384 455 358 476 L188 369 Q189 362 189 350 Q189 338 188 331 L357 225 Q383 245 416 245 Q440 245 466 231 Z " />
<glyph glyph-name="uniE052" unicode="&#xe052;" d="M0 584 L546 584 L546 519 L0 519 L0 584 Z M0 385 L0 450 L492 450 L492 385 L0 385 Z M437 316 L437 251 L0 251 L0 316 L437 316 Z M0 116 L0 181 L492 181 L492 116 L0 116 Z " />
<glyph glyph-name="uniE053" unicode="&#xe053;" d="M369 359 Q369 406 355.5 434 Q342 462 315 493 Q295 517 286 531 L286 162 Q286 134 263.5 108.5 Q241 83 203 67.5 Q165 52 121 52 Q70 52 35 74.5 Q0 97 0 132 Q0 158 22.5 183.5 Q45 209 83 225 Q121 241 165 241 Q192 241 221 233 L221 700 L286 700 Q286 679 299.5 659 Q313 639 340 610 Q377 569 396 537.5 Q415 506 415 466 Q415 415 378 359 L369 359 Z " />
<glyph glyph-name="uniE054" unicode="&#xe054;" d="M544 409 L459 409 L459 145 L410 145 L410 482 L325 482 L325 145 L276 145 L276 334 L191 334 L191 145 L142 145 L142 262 L57 262 L57 145 L0 145 L0 556 L600 556 L600 145 L544 145 L544 409 Z " />
<glyph glyph-name="uniE055" unicode="&#xe055;" d="M661 490 Q661 463 645 442 Q629 421 603 413 L603 231 Q603 167 582.5 136 Q562 105 539 95 Q524 89 510 89 Q474 89 448.5 119.5 Q423 150 423 197 Q423 211 427.5 231 Q432 251 438 270 Q452 316 452 334 Q452 364 437 376.5 Q422 389 396 389 Q385 389 380 388 L380 56 L415 56 L415 0 L0 0 L0 56 L35 56 L35 626 L380 626 L380 433 Q447 433 472 406 Q497 379 497 332 Q497 312 481 260 Q467 212 467 196 Q467 168 480 150.5 Q493 133 510 133 Q532 133 545.5 160.5 Q559 188 559 231 L559 413 Q532 421 515.5 442.5 Q499 464 499 490 L499 545 L522 545 L522 603 L566 603 L566 545 L595 545 L595 603 L639 603 L639 545 L661 545 L661 490 Z M306 407 L306 550 L113 550 L113 407 L306 407 Z " />
<glyph glyph-name="uniE056" unicode="&#xe056;" d="M603 231 Q603 167 582.5 136 Q562 105 539 95 Q524 89 510 89 Q473 89 448 120.5 Q423 152 423 197 Q423 221 439 271 Q444 289 448.5 306 Q453 323 453 334 Q453 390 393 390 L380 389 L380 56 L415 56 L415 0 L0 0 L0 56 L35 56 L35 626 L380 626 L380 433 Q447 433 472 406 Q497 379 497 332 Q497 312 481 260 Q467 212 467 196 Q467 168 480 150.5 Q493 133 510 133 Q533 133 546 160.5 Q559 188 559 231 L559 417 L526 451 L526 524 L467 589 L503 622 L603 512 L603 231 Z M304 407 L304 550 L111 550 L111 407 L304 407 Z " />
<glyph glyph-name="uniE057" unicode="&#xe057;" d="M603 231 Q603 146 573.5 118 Q544 90 515 90 Q476 90 450 120 Q424 150 424 197 Q424 212 428.5 232 Q433 252 439 271 Q444 288 448.5 305 Q453 322 453 334 Q453 390 393 390 L380 389 L380 56 L415 56 L415 0 L0 0 L0 56 L35 56 L35 626 L380 626 L380 433 Q446 433 472 405.5 Q498 378 498 332 Q497 314 483 266 Q468 217 468 196 Q468 168 481 150.5 Q494 133 511 133 Q533 133 546 160 Q559 187 559 231 L559 417 L526 451 L526 524 L467 589 L503 622 L603 512 L603 231 Z M305 407 L305 550 L112 550 L112 407 L305 407 Z M209 192 Q227 192 240 205 Q253 218 253 237 Q253 248 243.5 268 Q234 288 222.5 306 Q211 324 209 324 L187 289 Q165 251 165 237 Q165 218 177.5 205 Q190 192 209 192 Z " />
<glyph glyph-name="uniE058" unicode="&#xe058;" d="M661 491 Q661 463 645 442 Q629 421 603 414 L603 231 Q603 147 573 118.5 Q543 90 515 90 Q476 90 450 120 Q424 150 424 198 Q424 212 428.5 232 Q433 252 439 271 Q444 288 448.5 305 Q453 322 453 334 Q453 390 395 390 L380 389 L380 56 L415 56 L415 0 L0 0 L0 56 L35 56 L35 626 L380 626 L380 433 Q448 433 473 406 Q498 379 498 332 Q497 315 483 269 Q478 249 473 228.5 Q468 208 468 196 Q468 167 481.5 150.5 Q495 134 511 134 Q534 134 546.5 162 Q559 190 559 231 L559 414 Q533 420 516 442 Q499 464 499 490 L499 545 L522 545 L522 603 L566 603 L566 545 L595 545 L595 603 L639 603 L639 545 L661 545 L661 491 Z M306 407 L306 550 L113 550 L113 407 L306 407 Z M251 335 L154 214 L195 214 L155 111 L170 111 L267 232 L226 232 L266 335 L251 335 Z " />
<glyph glyph-name="uniE061" unicode="&#xe061;" d="M0 678 L454 678 L454 23 L0 23 L0 678 Z M381 493 L381 605 L73 605 L73 493 L381 493 Z M143 324 L143 393 L73 393 L73 324 L143 324 Z M262 324 L262 393 L194 393 L194 324 L262 324 Z M381 324 L381 393 L313 393 L313 324 L381 324 Z M143 216 L143 284 L73 284 L73 216 L143 216 Z M262 216 L262 284 L194 284 L194 216 L262 216 Z M381 216 L381 284 L313 284 L313 216 L381 216 Z M143 110 L143 176 L73 176 L73 110 L143 110 Z M262 110 L262 176 L194 176 L194 110 L262 110 Z M381 110 L381 176 L313 176 L313 110 L381 110 Z " />
<glyph glyph-name="uniE062" unicode="&#xe062;" d="M530 67 L284 67 L201 179 L123 179 L123 272 L65 272 L65 181 L0 181 L0 435 L65 435 L65 337 L123 337 L123 436 L203 436 L271 515 L377 515 L377 569 L276 569 L276 634 L545 634 L545 569 L442 569 L442 516 L551 516 L647 404 L752 404 L752 121 L570 121 L530 67 Z " />
<glyph glyph-name="u1F441" unicode="&#x1f441;" horiz-adv-x="965" d="M488 588 Q640 588 768 466 Q827 409 865 345 Q816 277 761 229 Q704 179 633 146 Q562 113 482 113 Q336 113 204 229 Q149 277 100 345 Q143 411 202 466 Q336 588 488 588 Z M482 530 Q444 530 411.5 511 Q379 492 360 459.5 Q341 427 341 389 Q341 351 360 319 Q379 287 411.5 268 Q444 249 482 249 Q520 249 552.5 268 Q585 287 604 319 Q623 351 623 389 Q623 427 604 459.5 Q585 492 552.5 511 Q520 530 482 530 Z M482 270 Q435 270 399.5 303 Q364 336 362 383 Q415 383 452 417 Q489 451 489 503 L488 509 Q536 507 569 472 Q602 437 602 390 Q602 340 567 305 Q532 270 482 270 Z M725 271 Q763 304 798 348 Q770 384 732.5 422 Q695 460 652 487 Q678 443 678 389 Q678 336 651.5 291 Q625 246 580 220 Q535 194 482 194 Q429 194 384 220 Q339 246 312.5 291 Q286 336 286 389 Q286 438 308 479 Q269 454 229.5 415.5 Q190 377 167 347 Q234 264 318 216 Q402 168 482 168 Q608 168 725 271 Z " />
<glyph glyph-name="uniE064" unicode="&#xe064;" d="M327 677 Q420 677 494.5 631 Q569 585 611 509.5 Q653 434 653 351 Q653 259 607 184.5 Q561 110 485.5 67 Q410 24 327 24 Q234 24 159 70.5 Q84 117 42 192.5 Q0 268 0 351 Q0 445 46.5 519.5 Q93 594 168.5 635.5 Q244 677 327 677 Z M327 612 Q256 612 195.5 577 Q135 542 100 482 Q65 422 65 351 Q65 280 100 219.5 Q135 159 195.5 124 Q256 89 327 89 Q398 89 458 124 Q518 159 553 219.5 Q588 280 588 351 Q588 422 553 482 Q518 542 458 577 Q398 612 327 612 Z M133 441 Q164 495 202.5 524.5 Q241 554 300 563 L295 420 L271 402 L263 405 L133 441 Z M353 563 Q412 554 450 524.5 Q488 495 520 442 L382 403 L359 420 L358 428 L353 563 Z M538 375 Q540 359 540 352 Q540 264 473 197 L393 314 L402 342 L536 392 Q538 378 538 375 Z M182 195 Q149 230 131 268 Q113 306 113 351 Q113 374 117 391 L252 342 L261 314 L257 307 L182 195 Z M430 165 Q381 138 327 138 Q298 138 270 145 Q242 152 225 164 L313 277 L342 277 L347 271 L430 165 Z " />
<glyph glyph-name="uniE065" unicode="&#xe065;" d="M312 562 Q397 562 468 520 Q539 478 581 406.5 Q623 335 623 250 Q623 191 599 129 L25 129 Q0 186 0 250 Q0 335 42 406.5 Q84 478 155.5 520 Q227 562 312 562 Z M344 221 Q360 237 360 261 L360 268 Q360 274 358 278 L488 416 L460 444 L321 314 Q317 316 311.5 316 Q306 316 305 316 Q282 316 265 299.5 Q248 283 248 260 Q248 237 264.5 220.5 Q281 204 304 204 Q327 204 344 221 Z " />
<glyph glyph-name="uniE066" unicode="&#xe066;" d="M176 655 L176 561 L128 561 L128 655 L176 655 Z M371 655 L371 561 L323 561 L323 655 L371 655 Z M566 655 L566 561 L518 561 L518 655 L566 655 Z M0 601 L96 601 L96 533 L209 533 L209 601 L291 601 L291 533 L404 533 L404 601 L486 601 L486 533 L599 533 L599 601 L694 601 L694 100 L0 100 L0 601 Z M188 376 L188 450 L96 450 L96 376 L188 376 Z M324 376 L324 450 L232 450 L232 376 L324 376 Z M460 376 L460 450 L367 450 L367 376 L460 376 Z M595 376 L595 450 L503 450 L503 376 L595 376 Z M188 270 L188 345 L96 345 L96 270 L188 270 Z M324 270 L324 345 L232 345 L232 270 L324 270 Z M460 270 L460 345 L367 345 L367 270 L460 270 Z M595 270 L595 345 L503 345 L503 270 L595 270 Z M188 165 L188 239 L96 239 L96 165 L188 165 Z M324 165 L324 239 L232 239 L232 165 L324 165 Z M460 165 L460 239 L367 239 L367 165 L460 165 Z " />
<glyph glyph-name="uniE068" unicode="&#xe068;" d="M0 586 L550 586 L550 521 L0 521 L0 586 Z M0 386 L0 451 L550 451 L550 386 L0 386 Z M0 252 L0 317 L550 317 L550 252 L0 252 Z M0 117 L0 182 L550 182 L550 117 L0 117 Z " />
<glyph glyph-name="uniE069" unicode="&#xe069;" d="M174 205 Q192 203 203 203 Q280 203 363.5 239 Q447 275 512 327.5 Q577 380 601 423 Q603 401 603 387 Q603 327 573.5 264 Q544 201 470.5 155.5 Q397 110 275 110 Q163 116 72 153 Q31 170 0 189 Q41 263 87 322 Q197 464 314 507 Q384 533 446 533 Q495 533 536 517 Q582 579 606 708 L643 699 Q639 645 629.5 607.5 Q620 570 592 495 Q569 434 495 370 Q421 306 328.5 264 Q236 222 163 222 L174 205 Z " />
<glyph glyph-name="uniE100" unicode="&#xe100;" d="M313 71 L247 71 L0 351 L244 629 L311 629 L87 351 L313 71 Z " />
<glyph glyph-name="uniE101" unicode="&#xe101;" d="M0 629 L67 629 L314 348 L69 71 L3 71 L227 348 L0 629 Z " />
<glyph glyph-name="uniE102" unicode="&#xe102;" d="M333 71 L247 71 L0 351 L244 629 L331 629 L117 351 L333 71 Z " />
<glyph glyph-name="uniE103" unicode="&#xe103;" d="M0 629 L87 629 L333 348 L89 71 L2 71 L217 348 L0 629 Z " />
<glyph glyph-name="uniE104" unicode="&#xe104;" d="M386 204 L340 158 L194 293 L47 158 L1 204 L137 349 L0 496 L46 542 L194 406 L341 542 L387 496 L250 349 L386 204 Z " />
<glyph glyph-name="uniE105" unicode="&#xe105;" d="M580 122 L520 61 L291 277 L63 61 L2 122 L219 349 L0 577 L61 639 L291 421 L521 639 L582 577 L363 349 L580 122 Z " />
<glyph glyph-name="uniE106" unicode="&#xe106;" d="M0 325 L36 364 L125 300 L367 541 L399 508 L132 199 L0 325 Z " />
<glyph glyph-name="uniE107" unicode="&#xe107;" d="M0 268 L42 318 L178 222 L623 641 L668 598 L181 83 L0 268 Z " />
<glyph glyph-name="uniE110" unicode="&#xe110;" d="M12 262 L12 645 L99 645 L99 262 L12 262 Z M111 137 Q111 114 95 97.5 Q79 81 56 81 Q33 81 16.5 97.5 Q0 114 0 137 Q0 160 16.5 176 Q33 192 56 192 Q79 192 95 176 Q111 160 111 137 Z " />
<glyph glyph-name="uniE111" unicode="&#xe111;" d="M146 642 Q187 642 223 621 Q259 600 280 564 Q301 528 301 487 Q301 435 271 399.5 Q241 364 187 328 L187 256 L101 256 L101 374 L127 391 Q175 422 194.5 442.5 Q214 463 214 487 Q214 516 194.5 535.5 Q175 555 146 555 Q125 555 107 542.5 Q89 530 81 510 L0 542 Q18 587 58 614.5 Q98 642 146 642 Z M145 175 Q168 175 184 159 Q200 143 200 120 Q200 97 184 80.5 Q168 64 145 64 Q122 64 105.5 80.5 Q89 97 89 120 Q89 143 105.5 159 Q122 175 145 175 Z " />
<glyph glyph-name="uniE112" unicode="&#xe112;" d="M109 505 Q81 505 61.5 524.5 Q42 544 42 572 Q42 600 61.5 619.5 Q81 639 109 639 Q137 639 156.5 619.5 Q176 600 176 572 Q176 544 156.5 524.5 Q137 505 109 505 Z M232 67 L0 67 L0 132 L81 132 L81 369 L6 369 L6 434 L168 434 L168 132 L232 132 L232 67 Z " />
<glyph glyph-name="uniE113" unicode="&#xe113;" d="M298 176 Q307 161 307 147 Q307 134 297.5 123.5 Q288 113 272 113 Q249 113 234 139 L178 235 Q158 230 142 230 Q105 230 72 249 Q39 268 19.5 301 Q0 334 0 372 Q0 410 19 443 Q38 476 71 495 Q104 514 142 514 Q180 514 213 495 Q246 476 265 443 Q284 410 284 372 Q284 316 243 272 L298 176 Z M70 300 Q100 270 142 270 Q184 270 214 300 Q244 330 244 372 Q244 414 214 444 Q184 474 142 474 Q100 474 70 444 Q40 414 40 372 Q40 330 70 300 Z M128 360 L86 360 L86 386 L128 386 L128 429 L155 429 L155 386 L197 386 L197 360 L155 360 L155 317 L128 317 L128 360 Z " />
<glyph glyph-name="uniE114" unicode="&#xe114;" d="M298 176 Q306 158 306 148 Q306 128 290 119 L291 119 L290 118 Q282 113 272 113 Q249 113 234 139 L178 235 Q158 230 142 230 Q105 230 72 249 Q39 268 19.5 301 Q0 334 0 372 Q0 410 19 443 Q38 476 71 495 Q104 514 142 514 Q180 514 213 495 Q246 476 265 443 Q284 410 284 372 Q284 316 243 272 L298 176 Z M70 300 Q100 270 142 270 Q184 270 214 300 Q244 330 244 372 Q244 414 214 444 Q184 474 142 474 Q100 474 70 444 Q40 414 40 372 Q40 330 70 300 Z M90 359 L90 385 L194 385 L194 359 L90 359 Z " />
<glyph glyph-name="uniE115" unicode="&#xe115;" d="M142 230 Q105 230 72 249.5 Q39 269 19.5 302 Q0 335 0 372 Q0 410 19 443 Q38 476 71 495 Q104 514 142 514 Q180 514 213 495 Q246 476 265 443 Q284 410 284 372 Q284 334 265 301 Q246 268 213 249 Q180 230 142 230 Z M142 474 Q100 474 70 444 Q40 414 40 372 Q40 330 70 300 Q100 270 142 270 Q184 270 214 300 Q244 330 244 372 Q244 414 214 444 Q184 474 142 474 Z M154 318 L128 318 L128 357 L88 357 L88 384 L128 384 L128 427 L154 427 L154 384 L197 384 L197 357 L154 357 L154 318 Z " />
<glyph glyph-name="uniE116" unicode="&#xe116;" d="M142 230 Q105 230 72 249.5 Q39 269 19.5 302 Q0 335 0 372 Q0 410 19 443 Q38 476 71 495 Q104 514 142 514 Q180 514 213 495 Q246 476 265 443 Q284 410 284 372 Q284 334 265 301 Q246 268 213 249 Q180 230 142 230 Z M142 474 Q100 474 70 444 Q40 414 40 372 Q40 330 70 300 Q100 270 142 270 Q184 270 214 300 Q244 330 244 372 Q244 414 214 444 Q184 474 142 474 Z M90 359 L90 385 L194 385 L194 359 L90 359 Z " />
<glyph glyph-name="uniE120" unicode="&#xe120;" d="M509 208 L314 208 L277 0 L231 0 L194 208 L0 208 L0 650 L509 650 L509 208 Z M254 389 Q271 389 282.5 400.5 Q294 412 294 429 Q294 446 282.5 457.5 Q271 469 254 469 Q237 469 225.5 457.5 Q214 446 214 429 Q214 412 225.5 400.5 Q237 389 254 389 Z " />
<glyph glyph-name="uniE121" unicode="&#xe121;" d="M509 207 L314 207 L277 0 L231 0 L194 207 L0 207 L0 649 L509 649 L509 207 Z M254 296 Q289 296 319.5 314 Q350 332 368 362.5 Q386 393 386 428 Q386 463 368 493.5 Q350 524 319.5 542 Q289 560 254 560 Q219 560 188.5 542 Q158 524 140 493.5 Q122 463 122 428 Q122 393 140 362.5 Q158 332 188.5 314 Q219 296 254 296 Z M155 376 Q142 399 142 428 Q142 472 173.5 505 Q205 538 249 540 L235 439 L155 376 Z M260 540 Q304 538 335 505 Q366 472 366 428 Q366 400 354 377 L275 439 L260 540 Z M348 366 Q333 343 308 329.5 Q283 316 254 316 Q225 316 200.5 329.5 Q176 343 161 366 L254 404 L348 366 Z " />
<glyph glyph-name="uniE122" unicode="&#xe122;" d="M262 89 Q190 89 130 125.5 Q70 162 35 222.5 Q0 283 0 352 Q0 425 37 485 Q74 545 134.5 579 Q195 613 262 613 Q335 613 395 576.5 Q455 540 489.5 479 Q524 418 524 349 Q524 277 487 217 Q450 157 389.5 123 Q329 89 262 89 Z M262 528 Q213 528 172.5 503.5 Q132 479 108.5 438.5 Q85 398 85 353 Q85 304 109 263 Q133 222 173.5 198 Q214 174 262 174 Q313 174 353.5 199.5 Q394 225 416.5 266 Q439 307 439 351 Q439 396 416 437 Q393 478 352.5 503 Q312 528 262 528 Z " />
<glyph glyph-name="uniE123" unicode="&#xe123;" d="M65 584 L65 519 L0 519 L0 584 L65 584 Z M464 519 L110 519 L110 584 L464 584 L464 519 Z M65 450 L65 385 L0 385 L0 450 L65 450 Z M110 384 L110 449 L462 449 L462 384 L110 384 Z M65 315 L65 250 L0 250 L0 315 L65 315 Z M462 315 L462 250 L110 250 L110 315 L462 315 Z M65 181 L65 116 L0 116 L0 181 L65 181 Z M462 181 L462 116 L110 116 L110 181 L462 181 Z " />
<glyph glyph-name="uniE124" unicode="&#xe124;" d="M191 584 L191 393 L0 393 L0 584 L191 584 Z M465 393 L274 393 L274 584 L465 584 L465 393 Z M191 307 L191 116 L0 116 L0 307 L191 307 Z M465 307 L465 116 L274 116 L274 307 L465 307 Z " />
<glyph glyph-name="uniE125" unicode="&#xe125;" d="M120 474 L0 474 L0 594 L120 594 L120 474 Z M304 474 L184 474 L184 594 L304 594 L304 474 Z M488 474 L368 474 L368 594 L488 594 L488 474 Z M120 291 L0 291 L0 410 L120 410 L120 291 Z M304 291 L184 291 L184 410 L304 410 L304 291 Z M488 291 L368 291 L368 410 L488 410 L488 291 Z M120 107 L0 107 L0 227 L120 227 L120 107 Z M304 107 L184 107 L184 227 L304 227 L304 107 Z M488 107 L368 107 L368 227 L488 227 L488 107 Z " />
<glyph glyph-name="uniE126" unicode="&#xe126;" d="M86 584 L86 499 L0 499 L0 584 L86 584 Z M213 584 L213 499 L125 499 L125 584 L213 584 Z M340 584 L340 499 L252 499 L252 584 L340 584 Z M465 499 L378 499 L378 584 L465 584 L465 499 Z M86 459 L86 374 L0 374 L0 459 L86 459 Z M209 459 L209 374 L122 374 L122 459 L209 459 Z M336 459 L336 374 L249 374 L249 459 L336 459 Z M465 459 L465 374 L378 374 L378 459 L465 459 Z M86 333 L86 248 L0 248 L0 333 L86 333 Z M209 333 L209 248 L122 248 L122 333 L209 333 Z M336 333 L336 248 L249 248 L249 333 L336 333 Z M465 333 L465 248 L378 248 L378 333 L465 333 Z M86 201 L86 116 L0 116 L0 201 L86 201 Z M209 201 L209 116 L122 116 L122 201 L209 201 Z M336 201 L336 116 L249 116 L249 201 L336 201 Z M465 201 L465 116 L378 116 L378 201 L465 201 Z " />
<glyph glyph-name="uniE127" unicode="&#xe127;" d="M240 414 Q295 414 333.5 388.5 Q372 363 391.5 322 Q411 281 411 236 L404 236 Q388 281 348 294 Q308 307 252 307 L182 307 L182 220 L0 358 L182 496 L182 414 L240 414 Z " />
<glyph glyph-name="uniE130" unicode="&#xe130;" d="M0 224 L0 480 L80 480 L80 224 L0 224 Z M211 221 L96 351 L207 478 L314 478 L202 351 L317 221 L211 221 Z " />
<glyph glyph-name="uniE131" unicode="&#xe131;" d="M107 480 L221 349 L110 223 L3 223 L115 349 L0 480 L107 480 Z M317 477 L317 221 L237 221 L237 477 L317 477 Z " />
<glyph glyph-name="uniE132" unicode="&#xe132;" d="M3 222 L115 349 L0 479 L107 479 L221 349 L110 222 L3 222 Z M391 349 L280 222 L173 222 L285 349 L170 479 L277 479 L391 349 Z " />
<glyph glyph-name="uniE133" unicode="&#xe133;" d="M0 352 L111 478 L218 478 L107 352 L221 222 L115 222 L0 352 Z M388 478 L277 352 L391 222 L285 222 L170 352 L281 478 L388 478 Z " />
<glyph glyph-name="uniE134" unicode="&#xe134;" d="M0 222 L0 478 L256 478 L256 222 L0 222 Z " />
<glyph glyph-name="uniE135" unicode="&#xe135;" d="M377 214 L0 214 L0 486 L377 486 L377 214 Z M60 426 L60 334 L168 334 L168 274 L317 274 L317 426 L60 426 Z " />
<glyph glyph-name="uniE136" unicode="&#xe136;" d="M375 214 L0 214 L0 487 L375 487 L375 214 Z M58 351 L58 273 L196 273 L196 351 L58 351 Z " />
<glyph glyph-name="uniE137" unicode="&#xe137;" d="M229 351 L0 207 L0 494 L229 351 Z " />
<glyph glyph-name="uniE138" unicode="&#xe138;" d="M0 222 L0 478 L80 478 L80 222 L0 222 Z M137 222 L137 478 L217 478 L217 222 L137 222 Z " />
<glyph glyph-name="uniE140" unicode="&#xe140;" d="M734 413 Q736 403 736 382 Q736 329 732 263 L731 235 L731 196 Q731 184 718 184 L671 184 Q671 187 671.5 194.5 Q672 202 672 217 Q676 287 676 338 Q676 360 664.5 382.5 Q653 405 642 416 L637 423 L626 443 Q649 445 649 449 Q649 471 638 478.5 Q627 486 598 486 Q573 528 558.5 547 Q544 566 536 570.5 Q528 575 516 577 Q468 582 361 582 Q279 582 219 578 Q252 626 273 626 L311 628 Q386 631 421 631 Q452 631 533 628 L575 626 Q586 626 601.5 610.5 Q617 595 658 535 Q686 532 697 526 Q708 520 708 497 Q708 492 685 491 L697 472 L702 465 L716 445 Q731 422 734 413 Z M622 320 Q624 310 624 290 Q624 254 619 171 Q619 157 618.5 150.5 Q618 144 618 142 L618 103 Q618 91 606 91 L551 91 Q538 91 538 103 L538 142 L466 142 L437 182 Q431 189 423 192 Q415 195 386.5 196 Q358 197 312 197 Q265 197 236 196 Q207 195 199 192.5 Q191 190 187 182 L159 142 L85 142 L85 103 Q85 91 73 91 L18 91 Q5 91 5 103 L5 153 Q3 172 1.5 214 Q0 256 0 290 Q0 316 11.5 338.5 Q23 361 35 372 L40 379 Q42 382 44.5 387 Q47 392 51 399 Q28 401 28 404 Q28 426 39 434 Q50 442 79 442 Q116 502 132.5 517.5 Q149 533 161 533 Q162 533 194.5 535.5 Q227 538 309 538 Q340 538 421 535 L463 533 Q475 533 492 517 Q509 501 546 442 Q574 442 585 435 Q596 428 596 405 Q596 402 590.5 400.5 Q585 399 573 399 L590 372 Q603 354 604 352 Q619 329 622 320 Z M83 342 Q81 342 80 343 L73 344 Q57 344 52 336.5 Q47 329 47 315 Q47 293 51 285.5 Q55 278 63 277 L140 263 L130 313 L83 342 Z M577 288 Q578 290 578 301 Q578 323 573 333.5 Q568 344 552 344 L544 343 Q543 342 541 342 L495 313 L484 263 L561 277 Q562 277 568 279 Q574 282 577 288 Z M341 289 Q338 298 333 301 L475 301 Q475 311 470 312 Q465 313 465 313 L312 321 L159 313 Q151 313 149 301 L291 301 Q286 298 283 289 L151 289 Q154 281 156 277 L284 269 Q290 259 295 256 L162 265 Q167 256 172 254 Q180 250 234.5 244 Q289 238 312 237 Q334 238 389 244 Q444 250 452 254 Q457 256 462 265 L329 256 Q336 261 340 269 L469 277 Q473 289 473 289 L341 289 Z M409 166 L413 162 L435 129 L189 129 L213 163 Q221 171 223 172 L402 172 L409 166 Z " />
<glyph glyph-name="uniE141" unicode="&#xe141;" d="M759 358 Q761 348 761 323 Q761 285 758.5 225.5 Q756 166 754 141 L754 93 Q754 87 750 82.5 Q746 78 740 78 L672 78 Q666 78 661 82.5 Q656 87 656 93 L656 140 L568 140 L534 190 Q533 192 529 198.5 Q525 205 485 206 Q445 207 381 207 Q316 207 280.5 206 Q245 205 240 202.5 Q235 200 228 190 L194 140 L103 140 L103 93 Q103 87 99 82.5 Q95 78 89 78 L22 78 Q15 78 10 82.5 Q5 87 5 93 L5 154 Q0 234 0 319 Q0 353 2 358 Q6 371 21 392.5 Q36 414 42 421 L62 454 Q49 454 41.5 455.5 Q34 457 34 461 Q34 489 47 496.5 Q60 504 95 507 Q128 559 148 583 Q168 607 177.5 612 Q187 617 197 618 Q209 619 256.5 621.5 Q304 624 376 624 Q380 624 381 625 Q400 678 446.5 711 Q493 744 552 744 Q601 744 642.5 719.5 Q684 695 708.5 653.5 Q733 612 733 563 Q733 504 698 456 L720 421 Q725 414 740 392 Q755 370 759 358 Z M455 541 L530 541 L530 466 L570 466 L570 541 L646 541 L646 581 L570 581 L570 656 L530 656 L530 581 L455 581 L455 541 Z M171 288 L158 350 L101 384 Q100 385 96.5 386 Q93 387 88 387 Q66 387 61 375.5 Q56 364 56.5 351 Q57 338 57 334 Q57 319 62 313.5 Q67 308 71.5 306.5 Q76 305 77 305 L171 288 Z M704 319 Q705 322 705 334 L704 362 Q704 366 694.5 376.5 Q685 387 673 387 Q668 387 665 386 Q662 385 661 384 L604 350 L591 288 L685 305 Q688 306 695 309.5 Q702 313 704 319 Z M415 320 Q414 329 406 335 L580 335 Q580 345 573.5 347 Q567 349 567 349 L548 350 L543 351 L380 360 L193 349 Q192 349 189.5 348 Q187 347 184.5 343.5 Q182 340 182 335 L354 335 Q348 329 345 320 L184 320 L189 305 L347 295 Q349 288 359 280 L197 290 Q205 280 209 278 Q219 272 292.5 264.5 Q366 257 380 257 Q394 257 468 264.5 Q542 272 552 278 Q556 280 564 290 L402 280 Q408 284 414 295 L572 305 Q576 315 577 320 L415 320 Z M490 177 Q494 175 498.5 171 Q503 167 504 165 L531 125 L230 125 L258 165 Q259 166 263 170.5 Q267 175 271 177 L490 177 Z " />
<glyph glyph-name="uniE143" unicode="&#xe143;" d="M397 727 L397 -27 L357 -27 L357 727 L397 727 Z M152 590 Q166 605 182 613 Q189 617 196 617 L227 619 Q296 622 317 623 L317 355 L193 348 L188 346 Q182 342 181 336 L181 334 L317 334 L317 319 L184 319 Q189 304 189 304 L317 296 L317 282 L197 289 Q206 278 232 272 Q258 266 317 261 L317 206 Q264 206 250 203.5 Q236 201 234 196 Q232 191 227 189 L193 139 L103 139 L103 92 Q103 86 99 81.5 Q95 77 88 77 L21 77 Q15 77 10 81.5 Q5 86 5 92 L5 153 Q3 175 1.5 225 Q0 275 0 318 Q0 352 13 379.5 Q26 407 41 420 L62 453 Q44 454 38.5 455 Q33 456 33 460 Q33 480 40 489 Q47 498 59 501 Q71 504 95 506 Q141 578 152 590 Z M759 357 Q760 353 760 325 Q760 280 755 177 Q755 159 754.5 151 Q754 143 754 140 L754 92 Q754 86 749.5 81.5 Q745 77 739 77 L672 77 Q665 77 660.5 81.5 Q656 86 656 92 L656 139 L567 139 L533 189 Q527 191 525.5 196.5 Q524 202 507.5 204 Q491 206 437 206 L437 261 Q500 267 527.5 272.5 Q555 278 564 289 L437 281 L437 304 L572 304 L577 319 L437 319 L437 334 L579 334 L579 336 Q578 342 572 346 L567 348 L437 356 L437 623 L509 620 L531 619 L565 617 Q574 617 583.5 611.5 Q593 606 613 582 Q633 558 666 506 Q702 503 714.5 495.5 Q727 488 727 460 Q727 454 699 453 Q702 449 713 429 L719 420 L737 396 Q756 369 759 357 Z M157 349 L100 383 Q97 383 96 384 Q90 386 87 386 Q68 386 62 376.5 Q56 367 56 350 Q56 330 58.5 320.5 Q61 311 64.5 308.5 Q68 306 76 304 L170 287 L157 349 Z M703 318 Q705 322 705 327 L704 345 Q704 363 698 374.5 Q692 386 673 386 Q670 386 664 384 Q663 383 660 383 L603 349 L590 287 L684 304 L692 307 Q701 312 703 318 Z M261 169 Q265 173 271 176 L317 176 L317 124 L230 124 L257 164 L261 169 Z M499 169 L503 164 L531 124 L437 124 L437 176 L490 176 L499 169 Z " />
<glyph glyph-name="uniE144" unicode="&#xe144;" d="M759 357 Q761 343 761 322 Q761 252 755 172 Q755 156 754.5 149 Q754 142 754 140 L754 92 Q754 86 750 81.5 Q746 77 739 77 L672 77 Q666 77 661 81.5 Q656 86 656 92 L656 139 L568 139 L534 189 Q527 199 521 201.5 Q515 204 479.5 205 Q444 206 381 206 Q316 206 281 205 Q246 204 240.5 201.5 Q235 199 228 189 L194 139 L103 139 L103 92 Q103 86 99 81.5 Q95 77 89 77 L22 77 Q15 77 10 81.5 Q5 86 5 92 L5 153 Q3 175 1.5 225 Q0 275 0 318 L0 338 Q0 354 2 357 Q5 369 24 396 L42 420 Q44 426 47 429 Q49 434 54 441 Q59 448 62 453 Q49 453 41.5 454.5 Q34 456 34 460 Q34 488 46.5 495.5 Q59 503 95 506 Q128 558 148.5 582 Q169 606 178.5 611.5 Q188 617 197 617 L243 620 Q336 623 376 623 Q415 623 514 620 L565 617 Q578 617 599.5 597 Q621 577 666 506 Q690 504 702 501 Q714 498 721 489 Q728 480 728 460 Q728 456 722.5 455 Q717 454 699 453 Q702 449 713 429 L719 420 L737 396 Q756 369 759 357 Z M158 349 L101 383 Q98 383 97 384 Q91 386 88 386 Q69 386 63 376.5 Q57 367 57 350 Q57 330 59.5 320.5 Q62 311 65.5 308.5 Q69 306 77 304 L171 287 L158 349 Z M704 318 Q705 321 705 333 L704 352 L704 361 Q704 366 695 376 Q686 386 673 386 Q670 386 664 384 Q663 383 661 383 L604 349 L591 287 L685 304 L693 307 Q702 312 704 318 Z M415 319 Q414 328 406 334 L580 334 Q580 338 573 345 L567 348 L380 359 L193 348 Q190 348 188 346 Q183 343 182 336 L182 334 L354 334 Q348 328 345 319 L184 319 L189 304 L347 294 Q351 286 359 279 L197 289 Q203 282 209 277 Q220 271 293 263.5 Q366 256 380 256 Q393 256 467 264 Q541 272 551 277 Q558 281 564 289 L402 279 Q410 285 414 294 L572 304 Q572 304 577 319 L415 319 Z M490 176 Q492 174 495 172.5 Q498 171 500 169 L504 164 L531 124 L230 124 L258 164 L262 169 Q264 171 266.5 172.5 Q269 174 271 176 L490 176 Z " />
<glyph glyph-name="uniE145" unicode="&#xe145;" d="M659 477 L693 601 L721 564 L747 584 Q775 604 804 604 Q827 604 848 593 Q869 582 884 563 L880 560 Q865 569 851 569 Q835 569 823 562 Q811 555 789 540 L758 517 L787 477 L659 477 Z M1045 133 L938 108 L920 108 Q926 122 926 139 Q926 178 899 204.5 Q872 231 833 231 Q794 231 767.5 204.5 Q741 178 741 139 Q741 125 746 108 L336 108 Q341 126 341 139 Q341 178 314 204.5 Q287 231 248 231 Q209 231 182.5 204.5 Q156 178 156 139 Q156 126 161 108 L0 108 L0 236 L28 268 Q36 280 80.5 293.5 Q125 307 183 318 Q251 331 322 341 L397 370 L505 446 L519 422 L441 356 L479 342 L781 342 L735 399 L658 408 L658 433 L759 433 L886 346 L956 347 Q988 347 1011 328 Q1019 321 1024 310 L1054 197 L1045 133 Z M248 200 Q274 200 292 182.5 Q310 165 310 139 Q310 113 292 95 Q274 77 248 77 Q222 77 204.5 95 Q187 113 187 139 Q187 165 204.5 182.5 Q222 200 248 200 Z M833 200 Q859 200 877 182.5 Q895 165 895 139 Q895 113 877 95 Q859 77 833 77 Q807 77 789.5 95 Q772 113 772 139 Q772 165 789.5 182.5 Q807 200 833 200 Z " />
<glyph glyph-name="uniE146" unicode="&#xe146;" d="M336 205 Q358 205 379.5 192 Q401 179 401 140 Q401 80 365 44 Q350 29 330 21 L71 21 Q50 29 35 44 Q0 79 0 140 Q0 179 21.5 192 Q43 205 65 205 L71 205 Q62 214 54 235 Q37 278 37 345 Q37 404 60 449.5 Q83 495 112 514 Q100 521 89 540 Q78 559 78 586 Q78 627 101.5 653.5 Q125 680 200 680 Q276 680 299 653.5 Q322 627 322 586 Q322 559 311 540 Q300 521 289 514 Q317 496 340.5 449.5 Q364 403 364 345 Q364 284 347 235 Q340 217 330 205 L336 205 Z M133 628 Q118 618 118 586 Q118 553 143 541 L257 541 Q269 545 275.5 557.5 Q282 570 282 586 Q282 605 277 616 Q272 627 254 633.5 Q236 640 200 640 Q151 640 133 628 Z M170 475 L130 475 L130 448 L170 448 L170 475 Z M272 475 L232 475 L232 448 L272 448 L272 475 Z M170 413 L130 413 L130 386 L170 386 L170 413 Z M272 413 L232 413 L232 386 L272 386 L272 413 Z M170 351 L130 351 L130 324 L170 324 L170 351 Z M272 351 L232 351 L232 324 L272 324 L272 351 Z M170 289 L130 289 L130 262 L170 262 L170 289 Z M272 289 L232 289 L232 262 L272 262 L272 289 Z M130 200 L170 200 L170 227 L130 227 L130 200 Z M232 200 L272 200 L272 227 L232 227 L232 200 Z M63 154 L63 114 L338 114 L338 154 L63 154 Z " />
<glyph glyph-name="H" unicode="H" horiz-adv-x="600" d="" />
<glyph glyph-name="O" unicode="O" horiz-adv-x="600" d="" />
</font>
</svg>
