<?xml version="1.0" encoding="UTF-8"?>
<svg xmlns="http://www.w3.org/2000/svg" xmlns:xlink="http://www.w3.org/1999/xlink" version="1.2" >
<font id="DaimlerCS-Demi">
<font-face  font-family="Daimler CS" units-per-em="2048" ascent="1645" descent="-403" font-style="normal" font-weight="600" font-stretch="normal" cap-height="1365" x-height="972" underline-position="-207" underline-thickness="183" />
<missing-glyph  horiz-adv-x="512" d="M51 0 L51 1365 L461 1365 L461 0 L51 0 Z M410 51 L410 1314 L102 1314 L102 51 L410 51 Z " />
<glyph glyph-name="space" unicode="&#x20;" horiz-adv-x="512" d="" />
<glyph glyph-name="exclam" unicode="&#x21;" horiz-adv-x="513" d="M148 1335 L365 1335 L338 421 L169 421 L148 1335 Z M258 258 Q314 258 355 217.5 Q396 177 396 120 Q396 63 355 23 Q314 -17 256 -17 Q199 -17 158 23 Q117 63 117 120 Q117 178 158 218 Q199 258 258 258 Z " />
<glyph glyph-name="quotedbl" unicode="&#x22;" horiz-adv-x="882" d="M350 817 L220 817 L184 1365 L387 1365 L350 817 Z M662 817 L532 817 L496 1365 L699 1365 L662 817 Z " />
<glyph glyph-name="numbersign" unicode="&#x23;" horiz-adv-x="1229" d="M1138 563 L1115 420 L877 420 L811 0 L645 0 L712 420 L437 420 L370 0 L205 0 L271 420 L37 420 L60 563 L294 563 L336 829 L103 829 L125 972 L358 972 L421 1365 L586 1365 L524 972 L798 972 L861 1365 L1027 1365 L965 972 L1203 972 L1180 829 L942 829 L900 563 L1138 563 Z M776 829 L501 829 L459 563 L734 563 L776 829 Z " />
<glyph glyph-name="dollar" unicode="&#x24;" horiz-adv-x="1133" d="M620 1207 L620 799 Q793 740 864 698 Q1052 588 1052 379 Q1052 209 934 99.5 Q816 -10 620 -23 L620 -190 L515 -190 L515 -23 Q88 15 82 425 L282 425 Q292 191 515 156 L515 616 Q338 677 278 712 Q114 808 114 1007 Q114 1168 222 1271 Q330 1374 515 1389 L515 1534 L620 1534 L620 1388 Q795 1369 896.5 1270.5 Q998 1172 1003 1014 L803 1014 Q784 1175 620 1207 Z M515 1208 Q317 1173 317 1024 Q317 931 399 882 Q429 864 515 834 L515 1208 Z M620 153 Q702 161 755 196 Q843 254 843 357 Q843 460 759 519 Q725 543 620 580 L620 153 Z " />
<glyph glyph-name="percent" unicode="&#x25;" horiz-adv-x="1326" d="M974 1365 L1147 1365 L350 0 L178 0 L974 1365 Z M995 648 Q1047 648 1099.5 622.5 Q1152 597 1188 554 Q1268 460 1268 319 Q1268 163 1173 67 Q1096 -11 993 -11 Q877 -11 798 83 Q718 178 718 319 Q718 475 813 571 Q889 648 995 648 Z M995 525 Q933 525 895 468 Q857 411 857 319 Q857 227 895 169.5 Q933 112 993 112 Q1053 112 1091 169.5 Q1129 227 1129 319 Q1129 409 1091 467 Q1053 525 995 525 Z M335 1376 Q448 1376 527 1282 Q607 1188 607 1047 Q607 891 512 795 Q436 717 332 717 Q217 717 138 811 Q58 906 58 1047 Q58 1203 153 1298 Q230 1376 335 1376 Z M334 1253 Q273 1253 235 1196 Q197 1139 197 1047 Q197 955 234.5 897.5 Q272 840 332 840 Q392 840 430 897.5 Q468 955 468 1047 Q468 1137 430.5 1195 Q393 1253 334 1253 Z " />
<glyph glyph-name="ampersand" unicode="&#x26;" horiz-adv-x="1200" d="M884 657 L1046 657 Q1047 619 1047 598 Q1047 479 1023.5 394.5 Q1000 310 947 235 L1122 0 L906 0 L833 108 Q763 40 686.5 11 Q610 -18 504 -18 Q327 -18 211 72 Q71 181 71 364 Q71 447 102.5 515.5 Q134 584 205 655 Q256 707 331 767 Q237 889 210 943.5 Q183 998 183 1068 Q183 1194 277 1272 Q365 1345 500 1345 Q627 1345 707 1278 Q797 1202 797 1072 Q797 979 750 902.5 Q703 826 587 732 L841 386 Q866 434 875 483.5 Q884 533 884 617 Q884 632 884 657 Z M480 858 Q625 974 625 1079 Q625 1129 590 1160.5 Q555 1192 501 1192 Q445 1192 407 1158.5 Q369 1125 369 1076 Q369 1030 389 990.5 Q409 951 480 858 Z M443 619 Q379 569 346 535 Q261 447 261 353 Q261 262 330 204 Q399 146 509 146 Q642 146 728 240 L443 619 Z " />
<glyph glyph-name="quotesingle" unicode="&#x27;" horiz-adv-x="512" d="M321 817 L191 817 L155 1365 L358 1365 L321 817 Z " />
<glyph glyph-name="parenleft" unicode="&#x28;" horiz-adv-x="602" d="M382 1377 L535 1377 Q319 1046 319 491 Q319 -79 535 -410 L382 -410 Q134 -75 134 484 Q134 1037 382 1377 Z " />
<glyph glyph-name="parenright" unicode="&#x29;" horiz-adv-x="604" d="M221 -410 L67 -410 Q285 -80 285 477 Q285 1045 67 1377 L221 1377 Q470 1040 470 483 Q470 -71 221 -410 Z " />
<glyph glyph-name="asterisk" unicode="&#x2a;" horiz-adv-x="1024" d="M460 1084 L460 1331 L565 1331 L565 1084 L799 1161 L832 1061 L597 985 L742 785 L657 724 L512 924 L367 724 L283 785 L427 985 L193 1061 L225 1161 L460 1084 Z " />
<glyph glyph-name="plus" unicode="&#x2b;" horiz-adv-x="1133" d="M645 761 L1030 761 L1030 609 L645 609 L645 210 L487 210 L487 609 L103 609 L103 761 L487 761 L487 1160 L645 1160 L645 761 Z " />
<glyph glyph-name="comma" unicode="&#x2c;" horiz-adv-x="502" d="M187 -387 L57 -387 Q212 -196 231 3 Q180 5 151 23 Q92 59 92 130 Q92 187 134 227 Q176 267 236 267 Q304 267 345 215 Q386 163 386 76 Q386 -27 340 -133.5 Q294 -240 187 -387 Z " />
<glyph glyph-name="hyphen" unicode="&#x2d;" horiz-adv-x="547" d="M0 591 L547 591 L547 441 L0 441 L0 591 Z " />
<glyph glyph-name="period" unicode="&#x2e;" horiz-adv-x="518" d="M261 258 Q317 258 357.5 217.5 Q398 177 398 120 Q398 63 357 23 Q316 -17 259 -17 Q201 -17 160.5 23 Q120 63 120 120 Q120 178 161 218 Q202 258 261 258 Z " />
<glyph glyph-name="slash" unicode="&#x2f;" horiz-adv-x="1153" d="M75 -354 L911 1365 L1078 1365 L243 -354 L75 -354 Z " />
<glyph glyph-name="zero" unicode="0" horiz-adv-x="1133" d="M573 1358 Q702 1358 805 1283 Q922 1199 979 1027 Q1030 873 1030 669 Q1030 335 893 144 Q776 -19 567 -19 Q356 -19 240 144 Q103 335 103 666 Q103 1009 240 1195 Q359 1358 573 1358 Z M570 1187 Q454 1187 398 1088 Q311 937 311 666 Q311 402 398 251 Q454 152 567 152 Q679 152 735 251 Q822 403 822 669 Q822 940 735 1088 Q677 1187 570 1187 Z " />
<glyph glyph-name="one" unicode="1" horiz-adv-x="1133" d="M346 995 L346 1115 Q479 1119 548.5 1170.5 Q618 1222 646 1339 L787 1339 L787 0 L582 0 L582 995 L346 995 Z " />
<glyph glyph-name="two" unicode="2" horiz-adv-x="1133" d="M347 952 L169 952 Q170 1115 245 1213 Q357 1358 577 1358 Q751 1358 857 1266 Q966 1173 966 1016 Q966 926 926.5 846 Q887 766 767 613 Q649 463 418 187 L980 187 L980 0 L155 0 L154 164 L184 202 Q587 687 671.5 807 Q756 927 756 1012 Q756 1085 703.5 1131.5 Q651 1178 567 1178 Q469 1178 412.5 1120 Q356 1062 347 952 Z " />
<glyph glyph-name="three" unicode="3" horiz-adv-x="1133" d="M363 984 L186 984 Q192 1143 279 1238 Q390 1358 594 1358 Q776 1358 878 1260 Q979 1164 979 1013 Q979 805 770 716 Q1009 641 1009 393 Q1009 189 860 71 Q746 -20 567 -20 Q360 -20 243.5 88.5 Q127 197 129 390 L314 390 Q316 296 364 237 Q428 159 562 159 Q675 159 738 220 Q803 282 803 390 Q803 541 668 592 Q608 615 477 615 Q461 615 436 615 L436 787 Q470 784 487 784 Q607 784 676 824 Q772 879 772 997 Q772 1080 718 1130 Q664 1180 575 1180 Q392 1180 363 984 Z " />
<glyph glyph-name="four" unicode="4" horiz-adv-x="1133" d="M824 467 L1061 467 L1061 298 L829 298 L829 -15 L622 -15 L622 298 L72 298 L72 460 L597 1339 L824 1339 L824 467 Z M632 467 L633 1100 L267 467 L632 467 Z " />
<glyph glyph-name="five" unicode="5" horiz-adv-x="1133" d="M277 1331 L919 1331 L903 1148 L431 1148 L376 828 Q476 902 593 902 Q788 902 901 765 Q999 648 999 467 Q999 266 875 125 Q747 -19 549 -19 Q330 -19 217 126 Q143 220 134 352 L327 352 Q342 258 397 209 Q452 160 541 160 Q653 160 715 239 Q784 327 784 457 Q784 582 723 657.5 Q662 733 561 733 Q428 733 340 608 L162 632 L277 1331 Z " />
<glyph glyph-name="six" unicode="6" horiz-adv-x="1133" d="M618 1356 L843 1356 Q620 1097 492 888 Q549 909 613 909 Q783 909 894 783 Q1004 659 1004 458 Q1004 228 863 93 Q747 -19 575 -19 Q393 -19 271 101 Q130 239 130 457 Q130 712 331 1005 Q421 1137 618 1356 Z M567 747 Q475 747 415 682 Q338 597 338 453 Q338 313 413 227 Q475 156 569 156 Q667 156 724 225 Q796 312 796 452 Q796 598 719 682 Q659 747 567 747 Z " />
<glyph glyph-name="seven" unicode="7" horiz-adv-x="1133" d="M132 1331 L1002 1331 L1002 1170 L362 0 L134 0 L758 1136 L132 1136 L132 1331 Z " />
<glyph glyph-name="eight" unicode="8" horiz-adv-x="1133" d="M312 702 Q157 791 157 977 Q157 1156 294 1266 Q408 1358 566 1358 Q724 1358 838 1266 Q975 1156 975 977 Q975 791 821 702 Q1006 599 1006 386 Q1006 196 865 81 Q743 -19 566 -19 Q390 -19 268 81 Q127 196 127 387 Q127 599 312 702 Z M569 1191 Q477 1191 421 1134 Q365 1077 365 984 Q365 888 426 831 Q482 779 567 779 Q656 779 712 836.5 Q768 894 768 985 Q768 1083 707 1139 Q649 1191 569 1191 Z M569 613 Q483 613 419 564 Q335 501 335 380 Q335 260 419 197 Q483 148 567 148 Q650 148 715 197 Q798 260 798 380 Q798 501 715 564 Q649 613 569 613 Z " />
<glyph glyph-name="nine" unicode="9" horiz-adv-x="1133" d="M513 -25 L289 -25 Q507 227 641 446 Q587 425 521 425 Q354 425 241 552 Q130 678 130 872 Q130 1111 283 1250 Q402 1358 575 1358 Q745 1358 859 1254 Q1004 1121 1004 881 Q1004 678 893 473 Q782 268 513 -25 Z M573 1183 Q478 1183 418 1117 Q338 1029 338 881 Q338 739 415 652 Q474 587 567 587 Q660 587 719 652 Q796 738 796 884 Q796 1036 720 1120 Q663 1183 573 1183 Z " />
<glyph glyph-name="colon" unicode="&#x3a;" horiz-adv-x="518" d="M261 258 Q317 258 357.5 217.5 Q398 177 398 120 Q398 63 357 23 Q316 -17 259 -17 Q201 -17 160.5 23 Q120 63 120 120 Q120 178 161 218 Q202 258 261 258 Z M261 971 Q317 971 357.5 930.5 Q398 890 398 833 Q398 776 357 736 Q316 696 259 696 Q201 696 160.5 736 Q120 776 120 833 Q120 891 161 931 Q202 971 261 971 Z " />
<glyph glyph-name="semicolon" unicode="&#x3b;" horiz-adv-x="502" d="M237 971 Q293 971 333.5 930.5 Q374 890 374 834 Q374 777 333.5 736.5 Q293 696 235 696 Q177 696 136.5 736 Q96 776 96 833 Q96 891 137 931 Q178 971 237 971 Z M187 -387 L57 -387 Q212 -196 231 3 Q180 5 151 23 Q92 59 92 130 Q92 187 134 227 Q176 267 236 267 Q304 267 345 215 Q386 163 386 76 Q386 -27 340 -133.5 Q294 -240 187 -387 Z " />
<glyph glyph-name="less" unicode="&#x3c;" horiz-adv-x="1024" d="M955 1211 L955 1011 L282 692 L955 374 L955 175 L68 607 L68 779 L955 1211 Z " />
<glyph glyph-name="equal" unicode="&#x3d;" horiz-adv-x="1133" d="M103 916 L1030 916 L1030 762 L103 762 L103 916 Z M103 607 L1030 607 L1030 453 L103 453 L103 607 Z " />
<glyph glyph-name="greater" unicode="&#x3e;" horiz-adv-x="1024" d="M69 174 L69 375 L742 692 L69 1011 L69 1210 L956 778 L956 606 L69 174 Z " />
<glyph glyph-name="question" unicode="&#x3f;" horiz-adv-x="849" d="M416 258 Q472 258 512.5 217.5 Q553 177 553 120 Q553 64 512 23.5 Q471 -17 414 -17 Q356 -17 315.5 23 Q275 63 275 120 Q275 178 316 218 Q357 258 416 258 Z M509 417 L319 417 Q319 555 322 602 Q327 663 354 710 Q381 757 454 834 Q529 913 553 954 Q577 995 577 1043 Q577 1104 539 1139 Q501 1174 435 1174 Q279 1174 266 995 L101 995 Q107 1159 175 1239 Q274 1354 459 1354 Q611 1354 698 1279 Q792 1197 792 1053 Q792 971 759.5 911.5 Q727 852 623 743 Q544 661 526 619.5 Q508 578 508 481 Q508 457 509 417 Z " />
<glyph glyph-name="at" unicode="&#x40;" horiz-adv-x="1502" d="M994 1011 L1137 1011 L1057 597 Q1044 529 1044 503 Q1044 463 1061 438 Q1078 413 1106 413 Q1166 413 1219 488 Q1307 612 1307 783 Q1307 1004 1157 1137 Q1015 1263 787 1263 Q539 1263 378 1101 Q209 930 209 673 Q209 423 366 261 Q521 102 807 102 Q1018 102 1204 182 L1239 54 Q1045 -26 806 -26 Q473 -26 275 163 Q174 259 119 397 Q66 530 66 676 Q66 885 171 1058 Q275 1229 454 1317 Q603 1390 785 1390 Q1056 1390 1235 1236 Q1337 1148 1390 1022 Q1437 910 1437 785 Q1437 605 1348 462 Q1242 294 1099 294 Q1039 294 998.5 329.5 Q958 365 944 430 Q851 291 696 291 Q563 291 480 385 Q399 477 399 622 Q399 793 513 920 Q615 1034 758 1034 Q909 1034 973 905 L994 1011 Z M779 890 Q677 890 615 795 Q563 717 563 620 Q563 532 607.5 480 Q652 428 728 428 Q830 428 887 530 Q931 608 931 708 Q931 793 890.5 841.5 Q850 890 779 890 Z " />
<glyph glyph-name="A" unicode="A" horiz-adv-x="1198" d="M495 1369 L700 1369 L1167 0 L948 0 L847 320 L350 320 L247 0 L30 0 L495 1369 Z M791 502 L598 1116 L405 502 L791 502 Z " />
<glyph glyph-name="B" unicode="B" horiz-adv-x="1168" d="M169 1365 L481 1365 Q708 1365 806 1331 Q913 1295 969 1205 Q1018 1127 1018 1024 Q1018 909 964 838 Q910 767 793 731 Q1091 661 1091 388 Q1091 214 975 108 Q901 41 801.5 20.5 Q702 0 452 0 L169 0 L169 1365 Z M377 798 L497 798 Q649 798 716 831 Q809 876 809 999 Q809 1125 708 1166 Q647 1191 486 1191 L377 1191 L377 798 Z M377 174 L504 174 Q701 174 769 204 Q818 225 845.5 277.5 Q873 330 873 400 Q873 556 746 603 Q676 628 507 628 L377 628 L377 174 Z " />
<glyph glyph-name="C" unicode="C" horiz-adv-x="1230" d="M1139 952 L952 952 Q903 1206 671 1206 Q508 1206 413 1073 Q310 926 310 681 Q310 435 417 287 Q510 159 673 159 Q936 159 967 487 L1159 487 Q1148 303 1080 187 Q956 -25 681 -25 Q434 -25 275 139 Q88 331 88 679 Q88 1056 297 1248 Q452 1390 672 1390 Q876 1390 998 1276 Q1120 1162 1139 952 Z " />
<glyph glyph-name="D" unicode="D" horiz-adv-x="1304" d="M169 1365 L446 1365 Q619 1365 719.5 1348.5 Q820 1332 897 1291 Q1054 1208 1143 1024 Q1215 873 1215 683 Q1215 404 1066 214 Q931 40 698 12 Q603 0 417 0 L169 0 L169 1365 Z M380 182 L490 182 Q625 182 692 195.5 Q759 209 817 248 Q916 314 963 455 Q997 558 997 685 Q997 890 905 1025 Q822 1148 669 1172 Q600 1184 439 1184 L380 1184 L380 182 Z " />
<glyph glyph-name="E" unicode="E" horiz-adv-x="1066" d="M380 798 L928 798 L928 616 L380 616 L380 182 L995 182 L995 0 L169 0 L169 1365 L977 1365 L977 1184 L380 1184 L380 798 Z " />
<glyph glyph-name="F" unicode="F" horiz-adv-x="1031" d="M380 798 L928 798 L928 616 L380 616 L380 0 L169 0 L169 1365 L977 1365 L977 1184 L380 1184 L380 798 Z " />
<glyph glyph-name="G" unicode="G" horiz-adv-x="1295" d="M721 692 L1177 692 L1177 127 Q961 -25 698 -25 Q432 -25 271 143 Q179 238 136 373 Q88 520 88 683 Q88 1033 272 1224 Q432 1390 679 1390 Q798 1390 898 1347 Q998 1304 1061 1226 Q1143 1125 1158 955 L971 955 Q925 1206 682 1206 Q516 1206 425 1089 Q310 943 310 683 Q310 422 428 276 Q522 159 699 159 Q856 159 997 248 L997 526 L721 526 L721 692 Z " />
<glyph glyph-name="H" unicode="H" horiz-adv-x="1350" d="M380 800 L969 800 L969 1365 L1180 1365 L1180 0 L969 0 L969 625 L380 625 L380 0 L169 0 L169 1365 L380 1365 L380 800 Z " />
<glyph glyph-name="I" unicode="I" horiz-adv-x="550" d="M381 0 L168 0 L168 1365 L381 1365 L381 0 Z " />
<glyph glyph-name="J" unicode="J" horiz-adv-x="641" d="M264 1365 L477 1365 L477 276 Q477 106 469.5 45.5 Q462 -15 435 -67 Q350 -231 57 -231 Q40 -231 -6 -229 L-6 -51 Q95 -52 148 -38.5 Q201 -25 229 7 Q252 34 258 80 Q264 126 264 274 L264 1365 Z " />
<glyph glyph-name="K" unicode="K" horiz-adv-x="1214" d="M909 1365 L1156 1365 L624 726 L1199 0 L923 0 L383 720 L909 1365 Z M169 1365 L380 1365 L380 0 L169 0 L169 1365 Z " />
<glyph glyph-name="L" unicode="L" horiz-adv-x="1016" d="M169 1365 L386 1365 L386 182 L975 182 L975 0 L169 0 L169 1365 Z " />
<glyph glyph-name="M" unicode="M" horiz-adv-x="1619" d="M169 1365 L472 1365 L809 228 L1148 1365 L1449 1365 L1449 0 L1255 0 L1255 1133 L916 0 L700 0 L363 1133 L363 0 L169 0 L169 1365 Z " />
<glyph glyph-name="N" unicode="N" horiz-adv-x="1368" d="M169 1365 L396 1365 L998 322 L998 1365 L1198 1365 L1198 0 L980 0 L370 1041 L370 0 L169 0 L169 1365 Z " />
<glyph glyph-name="O" unicode="O" horiz-adv-x="1353" d="M677 1390 Q920 1390 1082 1218 Q1265 1025 1265 683 Q1265 341 1082 147 Q920 -25 678 -25 Q432 -25 271 147 Q88 341 88 693 Q88 797 112.5 905.5 Q137 1014 179 1090 Q266 1253 423 1332 Q539 1390 677 1390 Z M677 1208 Q509 1208 416 1076 Q310 926 310 690 Q310 440 416 289 Q508 157 677 157 Q845 157 937 289 Q1043 440 1043 683 Q1043 929 937 1076 Q842 1208 677 1208 Z " />
<glyph glyph-name="P" unicode="P" horiz-adv-x="1119" d="M169 1365 L444 1365 Q711 1365 827 1326 Q954 1284 1020 1168 Q1075 1070 1075 944 Q1075 760 964 650 Q894 581 792.5 556.5 Q691 532 471 532 L380 532 L380 0 L169 0 L169 1365 Z M380 714 L470 714 Q645 714 716 734 Q782 753 819.5 809 Q857 865 857 944 Q857 1100 743 1151 Q668 1184 468 1184 L380 1184 L380 714 Z " />
<glyph glyph-name="Q" unicode="Q" horiz-adv-x="1384" d="M1186 298 L1461 -8 L1213 -8 L1077 142 Q915 -25 675 -25 Q433 -25 271 147 Q88 342 88 683 Q88 1023 271 1218 Q433 1390 677 1390 Q920 1390 1082 1218 Q1265 1023 1265 686 Q1265 478 1186 298 Z M677 1208 Q510 1208 417 1075 Q310 922 310 689 Q310 443 417 289 Q509 157 677 157 Q844 157 936 289 Q1043 444 1043 682 Q1043 925 936 1075 Q841 1208 677 1208 Z " />
<glyph glyph-name="R" unicode="R" horiz-adv-x="1181" d="M169 1365 L463 1365 Q631 1365 714 1354 Q797 1343 867 1310 Q979 1259 1033 1147 Q1074 1062 1074 961 Q1074 691 814 586 L1150 0 L901 0 L590 550 L380 550 L380 0 L169 0 L169 1365 Z M380 732 L475 732 Q654 732 723 757 Q786 779 821 833.5 Q856 888 856 963 Q856 1098 749 1150 Q706 1172 653.5 1178 Q601 1184 464 1184 L380 1184 L380 732 Z " />
<glyph glyph-name="S" unicode="S" horiz-adv-x="1140" d="M1009 987 L805 987 Q798 1074 753 1128 Q687 1206 562 1206 Q473 1206 412 1163 Q340 1111 340 1030 Q340 955 416 908 Q463 879 648 801 Q796 739 858.5 704 Q921 669 960 626 Q1048 530 1048 381 Q1048 180 896 66 Q775 -25 580 -25 Q348 -25 221 94.5 Q94 214 83 442 L288 442 Q299 314 358 248 Q437 159 584 159 Q692 159 763 212 Q831 263 831 346 Q831 434 742 495 Q694 528 518 603 Q309 693 237 759 Q128 861 128 1011 Q128 1201 279 1305 Q401 1390 569 1390 Q817 1390 938 1221 Q1001 1134 1009 987 Z " />
<glyph glyph-name="T" unicode="T" horiz-adv-x="992" d="M33 1365 L960 1365 L960 1184 L601 1184 L601 0 L390 0 L390 1184 L33 1184 L33 1365 Z " />
<glyph glyph-name="U" unicode="U" horiz-adv-x="1334" d="M153 1365 L364 1365 L364 572 Q364 451 370 399 Q376 347 396 304 Q431 229 509 192 Q579 159 667 159 Q772 159 845.5 203.5 Q919 248 947 330 Q969 394 969 572 L969 1365 L1180 1365 L1180 569 Q1180 417 1171.5 352.5 Q1163 288 1136 229 Q1079 102 941 33 Q826 -25 667 -25 Q437 -25 295 98 Q186 192 163 346 Q153 413 153 569 L153 1365 Z " />
<glyph glyph-name="V" unicode="V" horiz-adv-x="1202" d="M21 1365 L247 1365 L603 242 L957 1365 L1179 1365 L707 -4 L489 -4 L21 1365 Z " />
<glyph glyph-name="W" unicode="W" horiz-adv-x="1691" d="M27 1365 L226 1365 L488 254 L756 1365 L938 1365 L1206 254 L1471 1365 L1665 1365 L1326 -4 L1090 -4 L844 968 L601 -4 L366 -4 L27 1365 Z " />
<glyph glyph-name="X" unicode="X" horiz-adv-x="1157" d="M60 1365 L302 1365 L581 895 L863 1365 L1105 1365 L703 712 L1128 0 L887 0 L581 519 L270 0 L30 0 L457 712 L60 1365 Z " />
<glyph glyph-name="Y" unicode="Y" horiz-adv-x="1103" d="M11 1365 L250 1365 L555 777 L857 1365 L1092 1365 L657 554 L658 0 L446 0 L447 554 L11 1365 Z " />
<glyph glyph-name="Z" unicode="Z" horiz-adv-x="1018" d="M107 1365 L967 1365 L967 1217 L303 182 L950 182 L950 0 L54 0 L54 165 L711 1186 L107 1186 L107 1365 Z " />
<glyph glyph-name="bracketleft" unicode="&#x5b;" horiz-adv-x="602" d="M169 1365 L531 1365 L531 1204 L347 1204 L347 -236 L531 -236 L531 -398 L169 -398 L169 1365 Z " />
<glyph glyph-name="backslash" unicode="&#x5c;" horiz-adv-x="1153" d="M1078 -354 L910 -354 L75 1365 L242 1365 L1078 -354 Z " />
<glyph glyph-name="bracketright" unicode="&#x5d;" horiz-adv-x="602" d="M433 -398 L71 -398 L71 -237 L255 -237 L255 1203 L71 1203 L71 1365 L433 1365 L433 -398 Z " />
<glyph glyph-name="asciicircum" unicode="&#x5e;" horiz-adv-x="1024" d="M246 720 L33 720 L380 1371 L645 1371 L992 720 L778 720 L512 1211 L246 720 Z " />
<glyph glyph-name="underscore" unicode="&#x5f;" horiz-adv-x="1024" d="M0 -116 L1024 -116 L1024 -299 L0 -299 L0 -116 Z " />
<glyph glyph-name="grave" unicode="&#x60;" horiz-adv-x="1024" d="M670 1106 L513 1106 L171 1415 L432 1415 L670 1106 Z " />
<glyph glyph-name="a" unicode="a" horiz-adv-x="1014" d="M318 698 L124 698 Q140 834 222 904 Q328 994 520 994 Q643 994 727 954.5 Q811 915 842 843 Q873 771 873 613 L873 234 Q873 71 903 0 L717 0 Q702 56 700 120 Q620 -22 422 -22 Q282 -22 194 41 Q90 115 90 255 Q90 463 313 547 Q419 587 678 632 L678 659 Q678 744 650 779 Q608 831 508 831 Q343 831 318 698 Z M678 493 Q466 461 391 419 Q296 366 296 278 Q296 215 342.5 176 Q389 137 462 137 Q594 137 649 239 Q678 292 678 418 L678 493 Z " />
<glyph glyph-name="b" unicode="b" horiz-adv-x="1085" d="M145 1373 L346 1373 L346 840 Q404 922 467.5 958 Q531 994 617 994 Q759 994 861 892 Q1005 747 1005 488 Q1005 225 853 80 Q747 -22 595 -22 Q419 -22 331 134 Q330 59 313 0 L134 0 Q145 71 145 265 L145 1373 Z M581 823 Q474 823 412 736 Q345 643 345 482 Q345 321 418 224 Q474 149 570 149 Q662 149 717 214 Q799 314 799 490 Q799 653 731 746 Q676 823 581 823 Z " />
<glyph glyph-name="c" unicode="c" horiz-adv-x="987" d="M900 651 L702 651 Q686 747 642.5 791 Q599 835 519 835 Q419 835 361 757 Q285 655 285 483 Q285 321 347.5 229 Q410 137 520 137 Q633 137 681 228 Q701 267 711 340 L907 340 Q897 190 808 88 Q707 -27 521 -27 Q341 -27 222 90 Q79 231 79 484 Q79 752 240 899 Q351 999 523 999 Q686 999 783 909.5 Q880 820 900 651 Z " />
<glyph glyph-name="d" unicode="d" horiz-adv-x="1084" d="M938 1373 L938 298 Q938 83 956 0 L766 0 Q754 52 754 95 Q754 111 756 137 Q718 72 677 40 Q600 -22 482 -22 Q321 -22 217 85 Q79 226 79 477 Q79 746 231 895 Q332 994 474 994 Q564 994 623 961.5 Q682 929 737 851 L737 1373 L938 1373 Z M518 823 Q419 823 364 755 Q285 656 285 480 Q285 318 359 220 Q412 149 510 149 Q606 149 660 215 Q741 313 741 487 Q741 652 672 746 Q616 823 518 823 Z " />
<glyph glyph-name="e" unicode="e" horiz-adv-x="1026" d="M946 442 L282 442 Q287 315 336 240 Q403 138 539 138 Q682 138 745 266 L926 253 Q895 149 826 81 Q718 -27 534 -27 Q363 -27 246 69 Q79 206 79 474 Q79 657 156 791 Q276 999 527 999 Q732 999 848 842 Q947 707 947 486 Q947 473 946 442 Z M741 592 Q712 838 522 838 Q336 838 288 592 L741 592 Z " />
<glyph glyph-name="f" unicode="f" horiz-adv-x="630" d="M368 972 L604 972 L604 813 L371 813 L371 0 L166 0 L166 813 L33 813 L33 972 L166 972 L166 1033 Q166 1213 213 1288 Q285 1401 447 1401 Q536 1401 638 1362 L638 1192 Q542 1226 484 1226 Q417 1226 392.5 1182 Q368 1138 368 1016 L368 972 Z " />
<glyph glyph-name="g" unicode="g" horiz-adv-x="1040" d="M999 972 L999 825 L800 827 Q866 752 866 630 Q866 547 829.5 483.5 Q793 420 727 389 Q676 365 631.5 355 Q587 345 440 323 Q396 317 367 297 Q338 277 338 253 Q338 224 370.5 214 Q403 204 543 190 Q769 168 847 127 Q907 95 941 35 Q975 -25 975 -100 Q975 -258 837 -342 Q718 -414 513 -414 Q285 -414 158 -328 Q49 -253 49 -131 Q49 32 249 102 Q142 145 142 218 Q142 267 181 302 Q220 337 315 374 Q240 408 201 454 Q136 532 136 652 Q136 809 245 902 Q348 990 519 990 Q597 990 689 964 L999 972 Z M508 835 Q421 835 368.5 785.5 Q316 736 316 654 Q316 580 363 535 Q414 484 502 484 Q587 484 638.5 530.5 Q690 577 690 654 Q690 734 639 784.5 Q588 835 508 835 Z M490 28 Q377 28 307 -3 Q225 -40 225 -115 Q225 -188 311 -225 Q395 -261 515 -261 Q638 -261 709.5 -222.5 Q781 -184 781 -118 Q781 -48 705.5 -10 Q630 28 490 28 Z " />
<glyph glyph-name="h" unicode="h" horiz-adv-x="1086" d="M145 1373 L346 1373 L346 861 Q454 994 625 994 Q713 994 786.5 959 Q860 924 898 863 Q927 818 937 755.5 Q947 693 947 560 L947 0 L746 0 L746 526 Q746 672 720 726 Q675 816 565 816 Q442 816 381 708 Q346 644 346 515 L346 0 L145 0 L145 1373 Z " />
<glyph glyph-name="i" unicode="i" horiz-adv-x="495" d="M145 972 L350 972 L350 0 L145 0 L145 972 Z M251 1389 Q305 1389 339.5 1353.5 Q374 1318 374 1261 Q374 1205 339 1170 Q304 1135 247 1135 Q191 1135 156 1169.5 Q121 1204 121 1259 Q121 1316 157.5 1352.5 Q194 1389 251 1389 Z " />
<glyph glyph-name="j" unicode="j" horiz-adv-x="537" d="M191 972 L396 972 L396 114 Q396 -45 383.5 -113 Q371 -181 331 -238 Q279 -311 195 -345 Q111 -379 -22 -379 Q-38 -379 -70 -378 L-70 -204 Q-48 -205 -38 -205 Q125 -205 168 -118 Q183 -88 186.5 -53.5 Q190 -19 191 113 L191 972 Z M297 1388 Q352 1388 386 1353 Q420 1318 420 1261 Q420 1205 385 1170 Q350 1135 293 1135 Q237 1135 202 1169.5 Q167 1204 167 1259 Q167 1316 203 1352 Q239 1388 297 1388 Z " />
<glyph glyph-name="k" unicode="k" horiz-adv-x="1046" d="M731 972 L974 972 L590 527 L1005 0 L733 0 L350 523 L731 972 Z M145 1373 L346 1373 L346 0 L145 0 L145 1373 Z " />
<glyph glyph-name="l" unicode="l" horiz-adv-x="495" d="M145 1373 L350 1373 L350 0 L145 0 L145 1373 Z " />
<glyph glyph-name="m" unicode="m" horiz-adv-x="1642" d="M120 972 L316 972 Q335 917 335 841 Q436 994 624 994 Q818 994 898 832 Q1010 994 1206 994 Q1401 994 1469 859 Q1492 812 1497.5 768 Q1503 724 1503 580 L1503 0 L1302 0 L1302 577 Q1302 705 1277 748 Q1236 816 1130 816 Q924 816 924 561 L924 0 L723 0 L723 556 Q723 699 703 738 Q664 816 554 816 Q346 816 346 552 L346 0 L145 0 L145 709 Q145 832 140.5 877.5 Q136 923 120 972 Z " />
<glyph glyph-name="n" unicode="n" horiz-adv-x="1080" d="M118 972 L312 972 Q331 920 332 840 Q436 994 625 994 Q739 994 821 937 Q919 868 935 734 Q941 685 941 560 L941 0 L740 0 L740 526 Q740 676 716 728 Q675 816 565 816 Q440 816 380 710 Q345 649 345 519 L345 0 L144 0 L144 632 Q144 805 140.5 850.5 Q137 896 118 972 Z " />
<glyph glyph-name="o" unicode="o" horiz-adv-x="1066" d="M533 999 Q711 999 836 879 Q907 812 944 715 Q987 606 987 485 Q987 313 910 184 Q841 69 720 14 Q631 -27 534 -27 Q354 -27 230 92 Q79 236 79 492 Q79 656 156 787 Q224 902 346 958 Q435 999 533 999 Z M533 835 Q425 835 360 746 Q285 645 285 490 Q285 326 360 226 Q425 138 533 138 Q642 138 706 226 Q781 327 781 485 Q781 646 706 746 Q640 835 533 835 Z " />
<glyph glyph-name="p" unicode="p" horiz-adv-x="1084" d="M145 -403 L145 672 Q145 886 127 972 L317 972 Q335 919 335 844 Q432 994 606 994 Q755 994 856 896 Q1004 751 1004 489 Q1004 217 848 70 Q751 -22 614 -22 Q528 -22 465 11 Q402 44 346 119 L346 -403 L145 -403 Z M576 823 Q480 823 423 754 Q342 656 342 482 Q342 317 418 225 Q481 149 576 149 Q670 149 721 214 Q798 312 798 486 Q798 658 721 757 Q669 823 576 823 Z " />
<glyph glyph-name="q" unicode="q" horiz-adv-x="1084" d="M737 -403 L737 117 Q681 41 623.5 9.5 Q566 -22 483 -22 Q339 -22 236 71 Q79 212 79 479 Q79 749 228 894 Q331 994 485 994 Q664 994 748 845 Q748 919 765 972 L956 972 Q938 889 938 672 L938 -403 L737 -403 Z M511 823 Q419 823 365 756 Q285 657 285 482 Q285 310 364 216 Q420 149 511 149 Q614 149 673 229 Q741 324 741 485 Q741 657 660 754 Q604 823 511 823 Z " />
<glyph glyph-name="r" unicode="r" horiz-adv-x="723" d="M132 972 L324 972 Q339 898 339 823 Q339 803 337 766 Q442 994 602 994 Q643 994 699 974 L699 771 Q622 815 558 815 Q438 815 382 682 Q347 600 347 444 L347 0 L145 0 L145 656 Q144 888 132 972 Z " />
<glyph glyph-name="s" unicode="s" horiz-adv-x="949" d="M849 689 L655 689 Q646 759 616 792 Q571 843 479 843 Q409 843 364 808.5 Q319 774 319 720 Q319 667 360 640.5 Q401 614 551 570 Q662 538 717.5 511.5 Q773 485 803 451 Q861 384 861 281 Q861 142 767 59 Q668 -27 485 -27 Q290 -27 187 60.5 Q84 148 84 313 L275 313 Q282 230 317 191 Q371 130 480 130 Q562 130 610 166.5 Q658 203 658 266 Q658 326 594 359 Q558 378 382 431 Q236 475 182 531 Q118 598 118 701 Q118 836 221 919 Q321 999 482 999 Q649 999 744.5 918.5 Q840 838 849 689 Z " />
<glyph glyph-name="t" unicode="t" horiz-adv-x="691" d="M403 972 L617 972 L614 813 L400 813 L393 383 Q391 255 397 225 Q412 157 496 157 Q563 157 639 189 L636 19 Q536 -20 440 -20 Q282 -20 219 84 Q185 139 185 263 Q185 291 188 383 L200 813 L51 813 L54 972 L206 972 L213 1252 L408 1252 L403 972 Z " />
<glyph glyph-name="u" unicode="u" horiz-adv-x="1082" d="M139 972 L340 972 L340 399 Q340 270 374 223 Q421 156 523 156 Q644 156 701 255 Q736 316 736 438 L736 972 L937 972 L937 298 Q937 136 940 97.5 Q943 59 961 0 L768 0 Q752 48 748 120 Q657 -22 481 -22 Q385 -22 308 17 Q231 56 188 126 Q139 205 139 392 L139 972 Z " />
<glyph glyph-name="v" unicode="v" horiz-adv-x="961" d="M21 972 L233 972 L479 220 L726 972 L936 972 L591 -8 L366 -8 L21 972 Z " />
<glyph glyph-name="w" unicode="w" horiz-adv-x="1450" d="M29 972 L233 972 L427 246 L641 972 L807 972 L1020 246 L1216 972 L1419 972 L1132 -8 L923 -8 L721 658 L521 -8 L312 -8 L29 972 Z " />
<glyph glyph-name="x" unicode="x" horiz-adv-x="969" d="M56 972 L295 972 L485 665 L678 972 L919 972 L609 518 L962 0 L718 0 L485 359 L250 0 L7 0 L363 518 L56 972 Z " />
<glyph glyph-name="y" unicode="y" horiz-adv-x="964" d="M33 972 L247 972 L485 199 L732 972 L942 972 L617 47 Q567 -96 552.5 -131.5 Q538 -167 508 -219 Q398 -410 121 -410 Q102 -410 56 -408 L56 -232 Q81 -233 92 -233 Q216 -233 272 -192 Q328 -151 373 -28 L33 972 Z " />
<glyph glyph-name="z" unicode="z" horiz-adv-x="843" d="M93 972 L793 972 L793 822 L283 166 L792 166 L792 0 L46 0 L46 155 L549 806 L93 806 L93 972 Z " />
<glyph glyph-name="braceleft" unicode="&#x7b;" horiz-adv-x="602" d="M264 483 Q335 437 356 392 Q384 332 384 225 L384 -64 Q384 -174 403 -205 Q432 -252 552 -252 Q560 -252 578 -252 L578 -407 Q541 -409 514 -409 Q424 -409 368.5 -393 Q313 -377 277 -341 Q237 -302 221.5 -246 Q206 -190 206 -88 L206 232 Q206 320 180.5 362 Q155 404 92 418 L92 549 Q155 563 180.5 605 Q206 647 206 735 L206 1055 Q206 1157 221.5 1213 Q237 1269 277 1308 Q314 1344 369.5 1360 Q425 1376 515 1376 Q538 1376 578 1374 L578 1219 Q560 1219 552 1219 Q425 1219 399 1165 Q384 1133 384 1031 L384 742 Q384 635 359.5 582 Q335 529 264 483 Z " />
<glyph glyph-name="bar" unicode="&#x7c;" horiz-adv-x="1024" d="M411 1365 L612 1365 L612 -341 L411 -341 L411 1365 Z " />
<glyph glyph-name="braceright" unicode="&#x7d;" horiz-adv-x="602" d="M338 483 Q266 530 246 575 Q218 635 218 742 L218 1031 Q218 1140 199 1172 Q171 1219 52 1219 Q42 1219 24 1219 L24 1374 Q64 1376 87 1376 Q178 1376 233 1360 Q288 1344 325 1308 Q365 1269 380.5 1213 Q396 1157 396 1055 L396 735 Q396 647 422 605 Q448 563 510 549 L510 418 Q448 404 422 362 Q396 320 396 232 L396 -88 Q396 -190 380.5 -246 Q365 -302 325 -341 Q288 -377 233 -393 Q178 -409 87 -409 Q60 -409 24 -407 L24 -251 Q43 -252 52 -252 Q177 -252 203 -197 Q218 -166 218 -64 L218 225 Q218 333 242.5 385.5 Q267 438 338 483 Z " />
<glyph glyph-name="asciitilde" unicode="&#x7e;" horiz-adv-x="1365" d="M302 421 L188 496 Q237 598 263 635 Q347 754 482 754 Q557 754 704 692 Q790 655 824 644.5 Q858 634 893 634 Q947 634 982.5 660 Q1018 686 1061 757 L1178 689 Q1113 555 1048 504 Q967 440 866 440 Q804 440 576 534 Q512 560 465 560 Q416 560 379.5 529 Q343 498 302 421 Z " />
<glyph glyph-name="nbspace" unicode="&#xa0;" horiz-adv-x="512" d="" />
<glyph glyph-name="exclamdown" unicode="&#xa1;" horiz-adv-x="513" d="M365 -381 L148 -381 L174 534 L344 534 L365 -381 Z M256 971 Q314 971 354.5 931 Q395 891 395 834 Q395 776 354.5 736 Q314 696 254 696 Q198 696 157.5 736.5 Q117 777 117 834 Q117 890 158 930.5 Q199 971 256 971 Z " />
<glyph glyph-name="cent" unicode="&#xa2;" horiz-adv-x="1133" d="M634 1043 L634 363 Q764 394 783 558 L980 558 Q972 395 857 290 Q771 211 634 196 L634 -1 L528 -1 L528 198 Q396 220 308 298 Q152 437 152 695 Q152 909 252 1044.5 Q352 1180 532 1209 L532 1381 L637 1381 L637 1210 Q935 1178 976 868 L773 868 Q763 946 731.5 985.5 Q700 1025 634 1043 Z M532 1038 Q473 1014 441 974 Q357 870 357 694 Q357 505 454 409 Q482 382 532 365 L532 1038 Z " />
<glyph glyph-name="sterling" unicode="&#xa3;" horiz-adv-x="1133" d="M517 782 L829 782 L829 630 L488 630 Q445 335 346 163 Q454 191 560 191 Q600 191 689 187 Q738 184 760 184 Q832 184 853 214 Q881 258 884 352 L1052 352 Q1053 330 1053 319 Q1053 158 976 67 Q912 -9 759 -9 Q724 -9 559 4 Q475 10 405 10 Q254 10 81 -13 Q202 134 278 629 L99 629 L99 782 L307 782 L310 799 Q342 979 360 1051 Q378 1123 410 1196 Q492 1386 714 1386 Q898 1386 975 1269 Q1018 1202 1028 1065 L848 1065 Q841 1136 818 1167 Q785 1211 718 1211 Q654 1211 620 1172.5 Q586 1134 562 1034 Q549 980 517 782 Z " />
<glyph glyph-name="currency" unicode="&#xa4;" horiz-adv-x="1365" d="M79 265 L280 467 Q183 596 183 754 Q183 902 281 1039 L76 1242 L189 1355 L392 1152 Q530 1248 684 1248 Q835 1248 970 1154 L1172 1354 L1284 1242 L1083 1042 Q1182 902 1182 754 Q1182 603 1086 468 L1288 266 L1178 153 L975 355 Q838 258 684 258 Q539 258 392 354 L191 154 L79 265 Z M686 1067 Q553 1067 461 975 Q370 883 370 753 Q370 623 462 532 Q554 439 683 439 Q811 439 904 532 Q995 623 995 753 Q995 885 904 975 Q810 1067 686 1067 Z " />
<glyph glyph-name="yen" unicode="&#xa5;" horiz-adv-x="1133" d="M852 895 L1039 895 L1039 764 L785 764 L708 615 L1039 615 L1039 484 L674 484 L675 0 L463 0 L464 484 L94 484 L94 615 L430 615 L352 764 L94 764 L94 895 L284 895 L38 1365 L275 1365 L569 776 L861 1365 L1095 1365 L852 895 Z " />
<glyph glyph-name="brokenbar" unicode="&#xa6;" horiz-adv-x="1024" d="M411 1365 L612 1365 L612 671 L411 671 L411 1365 Z M411 314 L612 314 L612 -341 L411 -341 L411 314 Z " />
<glyph glyph-name="section" unicode="&#xa7;" horiz-adv-x="1024" d="M879 995 L714 995 Q702 1088 668 1131 Q617 1195 517 1195 Q440 1195 391.5 1156 Q343 1117 343 1055 Q343 999 384 963 Q416 934 571 852 Q764 749 821 701 Q914 623 914 505 Q914 336 736 234 Q809 179 840.5 120 Q872 61 872 -20 Q872 -169 772.5 -253.5 Q673 -338 497 -338 Q305 -338 204 -242.5 Q103 -147 102 36 L272 36 Q284 -55 315 -98 Q369 -175 495 -175 Q584 -175 632 -135 Q685 -92 685 -18 Q685 26 663 57.5 Q641 89 585 125 Q542 152 357 250 Q227 320 166 394 Q105 468 105 557 Q105 712 285 822 Q229 867 205 899 Q157 965 157 1053 Q157 1195 275 1285 Q371 1358 513 1358 Q685 1358 779 1265 Q873 1172 879 995 Z M423 738 Q289 663 289 568 Q289 507 347 459 Q405 411 599 311 Q732 389 732 485 Q732 559 646 612 Q535 681 423 738 Z " />
<glyph glyph-name="dieresis" unicode="&#xa8;" horiz-adv-x="1024" d="M337 1391 Q388 1391 424 1354.5 Q460 1318 460 1267 Q460 1215 423.5 1178.5 Q387 1142 336 1142 Q284 1142 247.5 1178.5 Q211 1215 211 1266 Q211 1319 247.5 1355 Q284 1391 337 1391 Z M691 1391 Q742 1391 778 1354.5 Q814 1318 814 1267 Q814 1215 777.5 1178.5 Q741 1142 690 1142 Q638 1142 601.5 1178.5 Q565 1215 565 1266 Q565 1319 601.5 1355 Q638 1391 691 1391 Z " />
<glyph glyph-name="copyright" unicode="&#xa9;" horiz-adv-x="1572" d="M1119 848 L991 848 Q960 998 818 998 Q716 998 658 921 Q593 834 593 692 Q593 554 654 472 Q715 390 819 390 Q985 390 998 584 L1129 583 Q1126 475 1077 398 Q996 270 820 270 Q666 270 565 366 Q444 480 444 690 Q444 917 578 1033 Q676 1118 817 1118 Q950 1118 1029.5 1047 Q1109 976 1119 848 Z M795 1391 Q985 1391 1156 1286 Q1327 1182 1417 1005 Q1494 854 1494 683 Q1494 484 1390 314 Q1286 144 1108 53 Q956 -24 786 -24 Q587 -24 417 80 Q247 184 156 362 Q79 514 79 682 Q79 883 183 1054 Q285 1221 465 1314 Q616 1391 795 1391 Z M794 1291 Q542 1291 367 1115 Q191 937 191 682 Q191 512 279 365 Q367 218 517 141 Q644 75 787 75 Q1033 75 1207 251 Q1383 430 1383 683 Q1383 855 1295 1002 Q1209 1146 1057 1225 Q931 1291 794 1291 Z " />
<glyph glyph-name="ordfeminine" unicode="&#xaa;" horiz-adv-x="1024" d="M393 1188 L265 1188 Q272 1281 337.5 1331 Q403 1381 519 1381 Q676 1381 723 1290 Q744 1251 744 1149 L744 922 Q744 824 765 777 L640 777 Q630 812 628 840 Q567 764 455 764 Q367 764 312 802 Q246 848 246 934 Q246 1043 355 1101 Q408 1129 592 1168 L615 1173 L615 1190 Q615 1275 511 1275 Q407 1275 393 1188 Z M615 1080 Q481 1053 431.5 1025 Q382 997 382 949 Q382 912 409 890 Q436 868 481 868 Q551 868 583 907 Q615 946 615 1032 L615 1080 Z M228 662 L782 662 L782 567 L228 567 L228 662 Z " />
<glyph glyph-name="guillemotleft" unicode="&#xab;" horiz-adv-x="898" d="M768 0 L605 0 L400 476 L605 976 L768 976 L596 476 L768 0 Z M438 0 L275 0 L70 476 L275 976 L438 976 L266 476 L438 0 Z " />
<glyph glyph-name="logicalnot" unicode="&#xac;" horiz-adv-x="1024" d="M754 0 L754 358 L68 358 L68 546 L955 546 L955 0 L754 0 Z " />
<glyph glyph-name="uni00AD" unicode="&#xad;" horiz-adv-x="547" d="M0 591 L547 591 L547 441 L0 441 L0 591 Z " />
<glyph glyph-name="registered" unicode="&#xae;" horiz-adv-x="1572" d="M523 1089 L712 1089 Q891 1089 967 1056 Q1028 1029 1063.5 972.5 Q1099 916 1099 844 Q1099 685 939 620 L1151 270 L982 270 L789 596 L666 596 L666 270 L523 270 L523 1089 Z M666 715 L720 715 Q830 715 873 729 Q952 756 952 846 Q952 921 889 951 Q847 970 713 970 L666 970 L666 715 Z M795 1391 Q985 1391 1156 1286 Q1327 1182 1417 1005 Q1494 853 1494 683 Q1494 484 1390 314 Q1285 144 1108 53 Q956 -24 786 -24 Q587 -24 417 80 Q247 184 156 362 Q79 514 79 682 Q79 883 183 1054 Q285 1221 465 1314 Q616 1391 795 1391 Z M794 1299 Q538 1299 362 1121 Q276 1034 230 920 Q183 805 183 682 Q183 510 273 361 Q362 212 513 134 Q642 67 787 67 Q1035 67 1212 246 Q1390 427 1390 683 Q1390 857 1301 1006 Q1214 1152 1060 1233 Q933 1299 794 1299 Z " />
<glyph glyph-name="overscore" unicode="&#xaf;" horiz-adv-x="1024" d="M224 1327 L800 1327 L800 1196 L224 1196 L224 1327 Z " />
<glyph glyph-name="degree" unicode="&#xb0;" horiz-adv-x="1024" d="M512 1390 Q637 1390 726 1304 Q814 1218 814 1095 Q814 972 727 886 Q638 798 512 798 Q387 798 298 886 Q210 973 210 1098 Q210 1219 298 1303 Q389 1390 512 1390 Z M512 1267 Q440 1267 388 1217 Q336 1167 336 1097 Q336 1022 387 972 Q439 921 512 921 Q585 921 636.5 972 Q688 1023 688 1094 Q688 1166 636.5 1216.5 Q585 1267 512 1267 Z " />
<glyph glyph-name="plusminus" unicode="&#xb1;" horiz-adv-x="1133" d="M645 790 L1030 790 L1030 638 L645 638 L645 290 L487 290 L487 638 L103 638 L103 790 L487 790 L487 1189 L645 1189 L645 790 Z M103 181 L1030 181 L1030 27 L103 27 L103 181 Z " />
<glyph glyph-name="twosuperior" unicode="&#xb2;" horiz-adv-x="739" d="M243 1437 L122 1437 Q122 1504 141 1550 Q167 1615 230.5 1651.5 Q294 1688 381 1688 Q490 1688 559 1632 Q629 1576 629 1480 Q629 1409 577.5 1334 Q526 1259 309 1013 L294 996 L638 996 L638 874 L113 874 L112 979 L132 1003 Q382 1288 434.5 1359 Q487 1430 487 1478 Q487 1519 456 1544.5 Q425 1570 375 1570 Q254 1570 243 1437 Z " />
<glyph glyph-name="threesuperior" unicode="&#xb3;" horiz-adv-x="739" d="M238 1465 L117 1465 Q121 1566 177 1623 Q248 1695 377 1695 Q493 1695 559 1636 Q623 1578 623 1488 Q623 1365 503 1312 Q641 1267 641 1120 Q641 1010 563.5 941.5 Q486 873 361 873 Q227 873 154 939 Q81 1005 82 1125 L208 1125 Q209 990 357 990 Q425 990 463.5 1024.5 Q502 1059 502 1120 Q502 1187 455.5 1217 Q409 1247 306 1247 Q296 1247 273 1246 L273 1359 Q298 1358 310 1358 Q483 1358 483 1478 Q483 1523 451 1550.5 Q419 1578 366 1578 Q254 1578 238 1465 Z " />
<glyph glyph-name="acute" unicode="&#xb4;" horiz-adv-x="1024" d="M387 1106 L625 1415 L886 1415 L544 1106 L387 1106 Z " />
<glyph glyph-name="mu" unicode="&#xb5;" horiz-adv-x="1024" d="M76 -348 L76 983 L277 983 L277 443 Q277 340 292.5 286.5 Q308 233 350 193 Q416 129 511 129 Q618 129 684 213 Q719 259 733 312.5 Q747 366 747 456 L747 983 L948 983 L948 0 L747 0 L747 148 Q711 73 673 39 Q604 -23 506 -23 Q362 -23 277 116 L277 -348 L76 -348 Z " />
<glyph glyph-name="paragraph" unicode="&#xb6;" horiz-adv-x="1271" d="M447 -195 L447 651 Q428 650 420 650 Q272 650 171 730 Q49 827 49 1002 Q49 1103 94 1184 Q139 1265 219 1309 Q322 1365 522 1365 L1124 1365 L1124 1207 L988 1207 L988 -195 L814 -195 L814 1207 L621 1207 L621 -195 L447 -195 Z " />
<glyph glyph-name="periodcentered" unicode="&#xb7;" horiz-adv-x="518" d="M261 650 Q317 650 357.5 609.5 Q398 569 398 512 Q398 455 357.5 415 Q317 375 259 375 Q202 375 161 415 Q120 455 120 512 Q120 570 161 610 Q202 650 261 650 Z " />
<glyph glyph-name="cedilla" unicode="&#xb8;" horiz-adv-x="1024" d="M438 0 L556 0 L515 -102 Q697 -134 697 -275 Q697 -357 639 -411 Q581 -465 492 -465 Q418 -465 327 -417 L327 -328 Q412 -362 448 -362 Q497 -362 526 -334 Q555 -306 555 -260 Q555 -211 520.5 -183 Q486 -155 426 -155 Q409 -155 378 -158 L438 0 Z " />
<glyph glyph-name="onesuperior" unicode="&#xb9;" horiz-adv-x="739" d="M159 1462 L159 1544 Q246 1546 288 1575.5 Q330 1605 348 1677 L445 1677 L445 874 L307 874 L307 1462 L159 1462 Z " />
<glyph glyph-name="ordmasculine" unicode="&#xba;" horiz-adv-x="1024" d="M512 1382 Q624 1382 703 1309 Q797 1222 797 1073 Q797 921 703 834 Q624 761 509 761 Q400 761 321 834 Q227 921 227 1072 Q227 1223 321 1309 Q401 1382 512 1382 Z M512 1275 Q445 1275 404 1219 Q363 1163 363 1072 Q363 981 404 924.5 Q445 868 510 868 Q579 868 620 924 Q661 980 661 1072 Q661 1163 619.5 1219 Q578 1275 512 1275 Z M235 662 L789 662 L789 567 L235 567 L235 662 Z " />
<glyph glyph-name="guillemotright" unicode="&#xbb;" horiz-adv-x="898" d="M130 976 L293 976 L498 499 L293 0 L130 0 L302 499 L130 976 Z M460 976 L623 976 L828 499 L623 0 L460 0 L632 499 L460 976 Z " />
<glyph glyph-name="onequarter" unicode="&#xbc;" horiz-adv-x="1746" d="M159 1121 L159 1203 Q246 1205 288 1235 Q330 1265 348 1336 L445 1336 L445 532 L307 532 L307 1121 L159 1121 Z M1177 1331 L1342 1331 L568 0 L404 0 L1177 1331 Z M1539 287 L1687 287 L1687 176 L1542 176 L1542 -9 L1402 -9 L1402 176 L1060 176 L1060 279 L1389 803 L1539 803 L1539 287 Z M1408 287 L1409 637 L1196 287 L1408 287 Z " />
<glyph glyph-name="onehalf" unicode="&#xbd;" horiz-adv-x="1746" d="M159 1121 L159 1203 Q245 1205 287.5 1235 Q330 1265 347 1336 L444 1336 L444 532 L306 532 L306 1121 L159 1121 Z M1177 1331 L1342 1331 L568 0 L404 0 L1177 1331 Z M1249 564 L1127 564 Q1128 668 1176 727 Q1248 815 1387 815 Q1499 815 1567 758 Q1635 701 1635 607 Q1635 553 1610 504.5 Q1585 456 1510 365 Q1420 257 1300 122 L1644 122 L1644 0 L1118 0 L1118 105 L1138 129 Q1386 412 1439.5 484 Q1493 556 1493 604 Q1493 645 1461.5 671 Q1430 697 1381 697 Q1258 697 1249 564 Z " />
<glyph glyph-name="threequarters" unicode="&#xbe;" horiz-adv-x="1745" d="M238 1124 L117 1124 Q121 1225 177 1282 Q247 1354 377 1354 Q493 1354 559 1295 Q623 1237 623 1147 Q623 1025 503 971 Q641 925 641 779 Q641 668 563.5 600 Q486 532 361 532 Q227 532 154 597.5 Q81 663 82 783 L208 783 Q208 649 357 649 Q425 649 463.5 683 Q502 717 502 778 Q502 845 455.5 875.5 Q409 906 306 906 Q297 906 273 905 L273 1018 Q298 1017 310 1017 Q483 1017 483 1137 Q483 1183 451 1210.5 Q419 1238 366 1238 Q254 1238 238 1124 Z M1178 1331 L1343 1331 L569 0 L404 0 L1178 1331 Z M1540 287 L1687 287 L1687 176 L1543 176 L1543 -9 L1403 -9 L1403 176 L1060 176 L1060 279 L1390 803 L1540 803 L1540 287 Z M1409 287 L1410 637 L1197 287 L1409 287 Z " />
<glyph glyph-name="questiondown" unicode="&#xbf;" horiz-adv-x="849" d="M462 971 Q519 971 560 930.5 Q601 890 601 834 Q601 776 560 736 Q519 696 460 696 Q403 696 362.5 736.5 Q322 777 322 834 Q322 890 363 930.5 Q404 971 462 971 Z M367 537 L557 537 L557 514 Q557 351 546 306 Q528 232 422 119 Q347 41 323 0.5 Q299 -40 299 -89 Q299 -149 337.5 -184.5 Q376 -220 442 -220 Q597 -220 610 -41 L775 -41 Q769 -206 701 -285 Q602 -400 417 -400 Q265 -400 178 -325 Q84 -243 84 -99 Q84 -17 117 43.5 Q150 104 253 211 Q332 294 350 335.5 Q368 377 368 477 Q368 497 367 537 Z " />
<glyph glyph-name="Agrave" unicode="&#xc0;" horiz-adv-x="1198" d="M496 1369 L701 1369 L1168 0 L949 0 L848 320 L351 320 L248 0 L31 0 L496 1369 Z M792 502 L599 1116 L406 502 L792 502 Z M741 1486 L546 1486 L166 1794 L427 1794 L741 1486 Z " />
<glyph glyph-name="Aacute" unicode="&#xc1;" horiz-adv-x="1198" d="M495 1369 L700 1369 L1167 0 L948 0 L847 320 L350 320 L247 0 L30 0 L495 1369 Z M791 502 L598 1116 L405 502 L791 502 Z M456 1486 L769 1794 L1031 1794 L650 1486 L456 1486 Z " />
<glyph glyph-name="Acircumflex" unicode="&#xc2;" horiz-adv-x="1198" d="M495 1369 L700 1369 L1167 0 L948 0 L847 320 L350 320 L247 0 L30 0 L495 1369 Z M791 502 L598 1116 L405 502 L791 502 Z M232 1500 L506 1779 L691 1779 L966 1500 L772 1500 L599 1669 L426 1500 L232 1500 Z " />
<glyph glyph-name="Atilde" unicode="&#xc3;" horiz-adv-x="1198" d="M495 1369 L700 1369 L1167 0 L948 0 L847 320 L350 320 L247 0 L30 0 L495 1369 Z M791 502 L598 1116 L405 502 L791 502 Z M365 1510 L261 1541 Q317 1750 464 1750 Q519 1750 611 1708 Q710 1663 747 1663 Q814 1663 853 1763 L949 1733 Q936 1664 910 1619 Q850 1516 752 1516 Q692 1516 601 1555 Q517 1591 499.5 1597 Q482 1603 463 1603 Q388 1603 365 1510 Z " />
<glyph glyph-name="Adieresis" unicode="&#xc4;" horiz-adv-x="1198" d="M495 1369 L700 1369 L1167 0 L948 0 L847 320 L350 320 L247 0 L30 0 L495 1369 Z M791 502 L598 1116 L405 502 L791 502 Z M413 1774 Q468 1774 507 1734.5 Q546 1695 546 1640 Q546 1584 506.5 1544.5 Q467 1505 411 1505 Q356 1505 316.5 1544.5 Q277 1584 277 1639 Q277 1696 316.5 1735 Q356 1774 413 1774 Z M787 1774 Q842 1774 881 1734.5 Q920 1695 920 1640 Q920 1584 880.5 1544.5 Q841 1505 786 1505 Q730 1505 690.5 1544.5 Q651 1584 651 1639 Q651 1696 690.5 1735 Q730 1774 787 1774 Z " />
<glyph glyph-name="Aring" unicode="&#xc5;" horiz-adv-x="1198" d="M495 1369 L700 1369 L1167 0 L948 0 L847 320 L350 320 L247 0 L30 0 L495 1369 Z M791 502 L598 1116 L405 502 L791 502 Z M601 1853 Q680 1853 738 1796 Q795 1738 795 1656 Q795 1575 738 1518 Q680 1460 599 1460 Q517 1460 460 1518 Q402 1576 402 1656 Q402 1739 460 1796 Q518 1853 601 1853 Z M600 1757 Q557 1757 527.5 1727.5 Q498 1698 498 1656 Q498 1615 527.5 1585.5 Q557 1556 599 1556 Q640 1556 669.5 1585.5 Q699 1615 699 1656 Q699 1698 669.5 1727.5 Q640 1757 600 1757 Z " />
<glyph glyph-name="AE" unicode="&#xc6;" horiz-adv-x="1815" d="M832 1365 L1733 1365 L1733 1184 L1149 1184 L1149 796 L1682 796 L1682 614 L1149 614 L1149 182 L1744 182 L1744 0 L934 0 L934 320 L446 320 L263 0 L32 0 L832 1365 Z M934 502 L934 1175 L552 502 L934 502 Z " />
<glyph glyph-name="Ccedilla" unicode="&#xc7;" horiz-adv-x="1230" d="M692 -25 L659 -119 Q741 -132 790 -168 Q866 -223 866 -319 Q866 -412 799.5 -473.5 Q733 -535 633 -535 Q555 -535 448 -480 L448 -379 Q538 -418 583 -418 Q638 -418 671 -386 Q704 -354 704 -301 Q704 -246 665.5 -214.5 Q627 -183 560 -183 Q540 -183 504 -188 L562 -13 Q446 5 332 90 Q87 273 87 681 Q87 1065 304 1255 Q458 1390 673 1390 Q876 1390 997.5 1275.5 Q1119 1161 1138 952 L951 952 Q902 1206 670 1206 Q512 1206 420 1083 Q309 935 309 680 Q309 435 416 287 Q509 159 672 159 Q935 159 966 487 L1159 487 Q1145 248 1033 122 Q911 -18 692 -25 Z " />
<glyph glyph-name="Egrave" unicode="&#xc8;" horiz-adv-x="1066" d="M375 798 L923 798 L923 616 L375 616 L375 182 L990 182 L990 0 L164 0 L164 1365 L972 1365 L972 1184 L375 1184 L375 798 Z M748 1486 L553 1486 L173 1794 L434 1794 L748 1486 Z " />
<glyph glyph-name="Eacute" unicode="&#xc9;" horiz-adv-x="1066" d="M380 798 L928 798 L928 616 L380 616 L380 182 L995 182 L995 0 L169 0 L169 1365 L977 1365 L977 1184 L380 1184 L380 798 Z M394 1486 L707 1794 L969 1794 L588 1486 L394 1486 Z " />
<glyph glyph-name="Ecircumflex" unicode="&#xca;" horiz-adv-x="1066" d="M380 798 L928 798 L928 616 L380 616 L380 182 L995 182 L995 0 L169 0 L169 1365 L977 1365 L977 1184 L380 1184 L380 798 Z M208 1500 L483 1779 L668 1779 L942 1500 L749 1500 L575 1669 L403 1500 L208 1500 Z " />
<glyph glyph-name="Edieresis" unicode="&#xcb;" horiz-adv-x="1066" d="M380 798 L928 798 L928 616 L380 616 L380 182 L995 182 L995 0 L169 0 L169 1365 L977 1365 L977 1184 L380 1184 L380 798 Z M390 1774 Q445 1774 484 1734.5 Q523 1695 523 1640 Q523 1584 483.5 1544.5 Q444 1505 389 1505 Q333 1505 293.5 1544.5 Q254 1584 254 1639 Q254 1696 293.5 1735 Q333 1774 390 1774 Z M763 1774 Q818 1774 857 1734.5 Q896 1695 896 1640 Q896 1584 856.5 1544.5 Q817 1505 762 1505 Q706 1505 666.5 1544.5 Q627 1584 627 1639 Q627 1696 666.5 1735 Q706 1774 763 1774 Z " />
<glyph glyph-name="Igrave" unicode="&#xcc;" horiz-adv-x="550" d="M381 0 L168 0 L168 1365 L381 1365 L381 0 Z M409 1486 L228 1486 L-98 1794 L150 1794 L409 1486 Z " />
<glyph glyph-name="Iacute" unicode="&#xcd;" horiz-adv-x="550" d="M382 0 L168 0 L168 1365 L382 1365 L382 0 Z M141 1486 L400 1794 L648 1794 L322 1486 L141 1486 Z " />
<glyph glyph-name="Icircumflex" unicode="&#xce;" horiz-adv-x="550" d="M381 0 L168 0 L168 1365 L381 1365 L381 0 Z M-44 1500 L182 1779 L367 1779 L594 1500 L408 1500 L275 1669 L144 1500 L-44 1500 Z " />
<glyph glyph-name="Idieresis" unicode="&#xcf;" horiz-adv-x="550" d="M382 0 L169 0 L169 1365 L382 1365 L382 0 Z M114 1767 Q166 1767 203.5 1729 Q241 1691 241 1638 Q241 1585 203 1547 Q165 1509 112 1509 Q59 1509 21 1547 Q-17 1585 -17 1638 Q-17 1692 21 1729.5 Q59 1767 114 1767 Z M441 1767 Q493 1767 530.5 1729 Q568 1691 568 1638 Q568 1585 530 1547 Q492 1509 439 1509 Q386 1509 348 1547 Q310 1585 310 1638 Q310 1692 348 1729.5 Q386 1767 441 1767 Z " />
<glyph glyph-name="Eth" unicode="&#xd0;" horiz-adv-x="1304" d="M170 1365 L447 1365 Q620 1365 720 1348.5 Q820 1332 898 1291 Q1056 1208 1144 1023 Q1216 873 1216 683 Q1216 404 1067 214 Q932 40 699 12 Q604 0 418 0 L170 0 L170 628 L47 628 L47 799 L170 799 L170 1365 Z M381 182 L491 182 Q626 182 693 195.5 Q760 209 818 248 Q917 313 964 454 Q998 557 998 684 Q998 890 906 1025 Q822 1148 670 1172 Q601 1183 440 1183 L381 1183 L381 799 L678 799 L678 628 L381 628 L381 182 Z " />
<glyph glyph-name="Ntilde" unicode="&#xd1;" horiz-adv-x="1368" d="M169 1365 L396 1365 L998 322 L998 1365 L1198 1365 L1198 0 L980 0 L370 1041 L370 0 L169 0 L169 1365 Z M455 1510 L352 1541 Q408 1750 554 1750 Q609 1750 701 1708 Q800 1663 837 1663 Q905 1663 944 1763 L1039 1733 Q1026 1664 1000 1619 Q941 1516 843 1516 Q782 1516 691 1555 Q608 1591 590.5 1597 Q573 1603 553 1603 Q477 1603 455 1510 Z " />
<glyph glyph-name="Ograve" unicode="&#xd2;" horiz-adv-x="1353" d="M859 1486 L664 1486 L284 1794 L545 1794 L859 1486 Z M676 1390 Q884 1390 1035 1261 Q1265 1065 1265 685 Q1265 301 1035 104 Q885 -25 669 -25 Q468 -25 318 104 Q88 301 88 683 Q88 1068 318 1261 Q471 1390 676 1390 Z M676 1208 Q511 1208 419 1084 Q310 937 310 683 Q310 430 419 281 Q462 224 527 191 Q595 157 672 157 Q842 157 934 281 Q1043 430 1043 685 Q1043 938 934 1084 Q841 1208 676 1208 Z " />
<glyph glyph-name="Oacute" unicode="&#xd3;" horiz-adv-x="1353" d="M495 1486 L809 1794 L1070 1794 L690 1486 L495 1486 Z M676 1390 Q884 1390 1035 1261 Q1265 1065 1265 685 Q1265 301 1035 104 Q885 -25 669 -25 Q468 -25 318 104 Q88 301 88 683 Q88 1068 318 1261 Q471 1390 676 1390 Z M676 1208 Q511 1208 419 1084 Q310 937 310 683 Q310 430 419 281 Q462 224 527 191 Q595 157 672 157 Q842 157 934 281 Q1043 430 1043 685 Q1043 938 934 1084 Q841 1208 676 1208 Z " />
<glyph glyph-name="Ocircumflex" unicode="&#xd4;" horiz-adv-x="1353" d="M310 1500 L584 1779 L769 1779 L1043 1500 L850 1500 L677 1669 L504 1500 L310 1500 Z M676 1390 Q884 1390 1035 1261 Q1265 1065 1265 685 Q1265 301 1035 104 Q885 -25 669 -25 Q468 -25 318 104 Q88 301 88 683 Q88 1068 318 1261 Q471 1390 676 1390 Z M676 1208 Q511 1208 419 1084 Q310 937 310 683 Q310 430 419 281 Q462 224 527 191 Q595 157 672 157 Q842 157 934 281 Q1043 430 1043 685 Q1043 938 934 1084 Q841 1208 676 1208 Z " />
<glyph glyph-name="Otilde" unicode="&#xd5;" horiz-adv-x="1353" d="M447 1510 L343 1541 Q361 1611 385 1653 Q440 1750 545 1750 Q600 1750 692 1708 Q791 1663 829 1663 Q896 1663 935 1763 L1030 1733 Q1017 1665 991 1619 Q931 1516 834 1516 Q773 1516 682 1555 Q598 1591 581 1597 Q564 1603 544 1603 Q468 1603 447 1510 Z M676 1390 Q884 1390 1035 1261 Q1265 1065 1265 685 Q1265 301 1035 104 Q885 -25 669 -25 Q468 -25 318 104 Q88 301 88 683 Q88 1068 318 1261 Q471 1390 676 1390 Z M676 1208 Q511 1208 419 1084 Q310 937 310 683 Q310 430 419 281 Q462 224 527 191 Q595 157 672 157 Q842 157 934 281 Q1043 430 1043 685 Q1043 938 934 1084 Q841 1208 676 1208 Z " />
<glyph glyph-name="Odieresis" unicode="&#xd6;" horiz-adv-x="1353" d="M491 1774 Q546 1774 585 1734.5 Q624 1695 624 1640 Q624 1584 584.5 1544.5 Q545 1505 490 1505 Q434 1505 394.5 1544.5 Q355 1584 355 1639 Q355 1696 394.5 1735 Q434 1774 491 1774 Z M865 1774 Q920 1774 959 1734.5 Q998 1695 998 1640 Q998 1584 958.5 1544.5 Q919 1505 864 1505 Q808 1505 768.5 1544.5 Q729 1584 729 1639 Q729 1696 768.5 1735 Q808 1774 865 1774 Z M676 1390 Q884 1390 1035 1261 Q1265 1065 1265 685 Q1265 301 1035 104 Q885 -25 669 -25 Q468 -25 318 104 Q88 301 88 683 Q88 1068 318 1261 Q471 1390 676 1390 Z M676 1208 Q511 1208 419 1084 Q310 937 310 683 Q310 430 419 281 Q462 224 527 191 Q595 157 672 157 Q842 157 934 281 Q1043 430 1043 685 Q1043 938 934 1084 Q841 1208 676 1208 Z " />
<glyph glyph-name="multiply" unicode="&#xd7;" horiz-adv-x="1133" d="M677 684 L970 391 L861 283 L570 574 L272 277 L162 387 L460 684 L168 976 L277 1085 L568 793 L861 1085 L971 975 L677 684 Z " />
<glyph glyph-name="Oslash" unicode="&#xd8;" horiz-adv-x="1353" d="M1030 1268 L1114 1379 L1278 1379 L1121 1173 Q1265 984 1265 679 Q1265 421 1147 234 Q1051 81 889 16 Q789 -25 679 -25 Q477 -25 320 101 L235 -14 L75 -14 L228 196 Q169 283 142 353 Q88 496 88 683 Q88 1085 335 1275 Q483 1390 675 1390 Q871 1390 1030 1268 Z M906 1114 Q809 1207 676 1207 Q521 1207 432 1094 Q310 940 310 674 Q310 531 366 383 L906 1114 Z M442 257 Q547 157 681 157 Q832 157 921 270 Q1043 425 1043 688 Q1043 841 984 997 L442 257 Z " />
<glyph glyph-name="Ugrave" unicode="&#xd9;" horiz-adv-x="1334" d="M857 1486 L662 1486 L282 1794 L543 1794 L857 1486 Z M153 1365 L364 1365 L364 572 Q364 451 370 399 Q376 347 396 304 Q431 229 509 192 Q579 159 667 159 Q772 159 845.5 203.5 Q919 248 947 330 Q969 394 969 572 L969 1365 L1180 1365 L1180 569 Q1180 417 1171.5 352.5 Q1163 288 1136 229 Q1079 102 941 33 Q826 -25 667 -25 Q437 -25 295 98 Q186 192 163 346 Q153 413 153 569 L153 1365 Z " />
<glyph glyph-name="Uacute" unicode="&#xda;" horiz-adv-x="1334" d="M478 1486 L792 1794 L1054 1794 L673 1486 L478 1486 Z M153 1365 L364 1365 L364 572 Q364 451 370 399 Q376 347 396 304 Q431 229 509 192 Q579 159 667 159 Q772 159 845.5 203.5 Q919 248 947 330 Q969 394 969 572 L969 1365 L1180 1365 L1180 569 Q1180 417 1171.5 352.5 Q1163 288 1136 229 Q1079 102 941 33 Q826 -25 667 -25 Q437 -25 295 98 Q186 192 163 346 Q153 413 153 569 L153 1365 Z " />
<glyph glyph-name="Ucircumflex" unicode="&#xdb;" horiz-adv-x="1334" d="M300 1500 L574 1779 L759 1779 L1034 1500 L840 1500 L667 1669 L495 1500 L300 1500 Z M153 1365 L364 1365 L364 572 Q364 451 370 399 Q376 347 396 304 Q431 229 509 192 Q579 159 667 159 Q772 159 845.5 203.5 Q919 248 947 330 Q969 394 969 572 L969 1365 L1180 1365 L1180 569 Q1180 417 1171.5 352.5 Q1163 288 1136 229 Q1079 102 941 33 Q826 -25 667 -25 Q437 -25 295 98 Q186 192 163 346 Q153 413 153 569 L153 1365 Z " />
<glyph glyph-name="Udieresis" unicode="&#xdc;" horiz-adv-x="1334" d="M481 1774 Q536 1774 575 1734.5 Q614 1695 614 1640 Q614 1584 575 1544.5 Q536 1505 480 1505 Q424 1505 384.5 1544.5 Q345 1584 345 1639 Q345 1696 384.5 1735 Q424 1774 481 1774 Z M855 1774 Q910 1774 949 1734.5 Q988 1695 988 1640 Q988 1584 948.5 1544.5 Q909 1505 854 1505 Q798 1505 758.5 1544.5 Q719 1584 719 1639 Q719 1696 758.5 1735 Q798 1774 855 1774 Z M153 1365 L364 1365 L364 572 Q364 451 370 399 Q376 347 396 304 Q431 229 509 192 Q579 159 667 159 Q772 159 845.5 203.5 Q919 248 947 330 Q969 394 969 572 L969 1365 L1180 1365 L1180 569 Q1180 417 1171.5 352.5 Q1163 288 1136 229 Q1079 102 941 33 Q826 -25 667 -25 Q437 -25 295 98 Q186 192 163 346 Q153 413 153 569 L153 1365 Z " />
<glyph glyph-name="Yacute" unicode="&#xdd;" horiz-adv-x="1103" d="M11 1365 L250 1365 L554 777 L857 1365 L1092 1365 L657 554 L658 0 L446 0 L447 554 L11 1365 Z M372 1486 L686 1794 L947 1794 L567 1486 L372 1486 Z " />
<glyph glyph-name="Thorn" unicode="&#xde;" horiz-adv-x="1119" d="M169 1365 L380 1365 L380 1206 L444 1206 Q710 1206 827 1167 Q954 1125 1020 1009 Q1075 911 1075 785 Q1075 601 964 491 Q894 421 793.5 397 Q693 373 471 373 L380 373 L380 0 L169 0 L169 1365 Z M380 555 L470 555 Q646 555 716 575 Q782 594 819.5 650 Q857 706 857 785 Q857 941 743 992 Q699 1011 642.5 1018 Q586 1025 468 1025 L380 1025 L380 555 Z " />
<glyph glyph-name="germandbls" unicode="&#xdf;" horiz-adv-x="1078" d="M128 0 L128 862 Q128 1035 137.5 1098.5 Q147 1162 180 1219 Q226 1297 315 1340.5 Q404 1384 519 1384 Q673 1384 773 1309 Q900 1213 900 1050 Q900 845 691 774 Q998 702 998 389 Q998 191 873 75 Q776 -14 642 -14 Q558 -14 484 24 L484 202 Q552 164 617 164 Q698 164 745 222.5 Q792 281 792 382 Q792 567 643 638 Q561 677 459 677 Q453 677 438 677 L438 850 Q455 850 477 850 Q578 850 637 899 Q698 949 698 1035 Q698 1118 648 1168 Q598 1218 516 1218 Q388 1218 350 1115 Q336 1079 332.5 1038 Q329 997 329 881 L329 0 L128 0 Z " />
<glyph glyph-name="agrave" unicode="&#xe0;" horiz-adv-x="1014" d="M666 1106 L509 1106 L167 1415 L428 1415 L666 1106 Z M318 698 L124 698 Q140 834 222 904 Q328 994 520 994 Q643 994 727 954.5 Q811 915 842 843 Q873 771 873 613 L873 234 Q873 71 903 0 L717 0 Q702 56 700 120 Q620 -22 422 -22 Q282 -22 194 41 Q90 115 90 255 Q90 463 313 547 Q419 587 678 632 L678 659 Q678 744 650 779 Q608 831 508 831 Q343 831 318 698 Z M678 493 Q466 461 391 419 Q296 366 296 278 Q296 215 342.5 176 Q389 137 462 137 Q594 137 649 239 Q678 292 678 418 L678 493 Z " />
<glyph glyph-name="aacute" unicode="&#xe1;" horiz-adv-x="1014" d="M357 1106 L595 1415 L856 1415 L514 1106 L357 1106 Z M318 698 L124 698 Q140 834 222 904 Q328 994 520 994 Q643 994 727 954.5 Q811 915 842 843 Q873 771 873 613 L873 234 Q873 71 903 0 L717 0 Q702 56 700 120 Q620 -22 422 -22 Q282 -22 194 41 Q90 115 90 255 Q90 463 313 547 Q419 587 678 632 L678 659 Q678 744 650 779 Q608 831 508 831 Q343 831 318 698 Z M678 493 Q466 461 391 419 Q296 366 296 278 Q296 215 342.5 176 Q389 137 462 137 Q594 137 649 239 Q678 292 678 418 L678 493 Z " />
<glyph glyph-name="acircumflex" unicode="&#xe2;" horiz-adv-x="1014" d="M174 1115 L414 1415 L599 1415 L840 1115 L654 1115 L507 1299 L362 1115 L174 1115 Z M318 698 L124 698 Q140 834 222 904 Q328 994 520 994 Q643 994 727 954.5 Q811 915 842 843 Q873 771 873 613 L873 234 Q873 71 903 0 L717 0 Q702 56 700 120 Q620 -22 422 -22 Q282 -22 194 41 Q90 115 90 255 Q90 463 313 547 Q419 587 678 632 L678 659 Q678 744 650 779 Q608 831 508 831 Q343 831 318 698 Z M678 493 Q466 461 391 419 Q296 366 296 278 Q296 215 342.5 176 Q389 137 462 137 Q594 137 649 239 Q678 292 678 418 L678 493 Z " />
<glyph glyph-name="atilde" unicode="&#xe3;" horiz-adv-x="1014" d="M292 1137 L197 1161 Q248 1376 375 1376 Q425 1376 513 1334 Q605 1290 637 1290 Q695 1290 731 1390 L821 1366 Q806 1275 767 1217 Q717 1142 644 1142 Q596 1142 501 1186 Q406 1230 377 1230 Q317 1230 292 1137 Z M318 698 L124 698 Q140 834 222 904 Q328 994 520 994 Q643 994 727 954.5 Q811 915 842 843 Q873 771 873 613 L873 234 Q873 71 903 0 L717 0 Q702 56 700 120 Q620 -22 422 -22 Q282 -22 194 41 Q90 115 90 255 Q90 463 313 547 Q419 587 678 632 L678 659 Q678 744 650 779 Q608 831 508 831 Q343 831 318 698 Z M678 493 Q466 461 391 419 Q296 366 296 278 Q296 215 342.5 176 Q389 137 462 137 Q594 137 649 239 Q678 292 678 418 L678 493 Z " />
<glyph glyph-name="adieresis" unicode="&#xe4;" horiz-adv-x="1014" d="M318 698 L124 698 Q140 834 222 904 Q328 994 520 994 Q643 994 727 954.5 Q811 915 842 843 Q873 771 873 613 L873 234 Q873 71 903 0 L717 0 Q702 56 700 120 Q620 -22 422 -22 Q282 -22 194 41 Q90 115 90 255 Q90 463 313 547 Q419 587 678 632 L678 659 Q678 744 650 779 Q608 831 508 831 Q343 831 318 698 Z M678 493 Q466 461 391 419 Q296 366 296 278 Q296 215 342.5 176 Q389 137 462 137 Q594 137 649 239 Q678 292 678 418 L678 493 Z M328 1391 Q379 1391 415 1354.5 Q451 1318 451 1267 Q451 1215 414.5 1178.5 Q378 1142 327 1142 Q275 1142 238.5 1178.5 Q202 1215 202 1266 Q202 1319 238.5 1355 Q275 1391 328 1391 Z M682 1391 Q733 1391 769 1354.5 Q805 1318 805 1267 Q805 1215 768.5 1178.5 Q732 1142 681 1142 Q629 1142 592.5 1178.5 Q556 1215 556 1266 Q556 1319 592.5 1355 Q629 1391 682 1391 Z " />
<glyph glyph-name="aring" unicode="&#xe5;" horiz-adv-x="1014" d="M510 1476 Q589 1476 646.5 1418 Q704 1360 704 1279 Q704 1198 647 1141 Q589 1083 508 1083 Q426 1083 369 1141 Q311 1198 311 1279 Q311 1361 369 1418.5 Q427 1476 510 1476 Z M509 1380 Q466 1380 436.5 1351 Q407 1322 407 1279 Q407 1238 436.5 1208.5 Q466 1179 508 1179 Q549 1179 578.5 1208.5 Q608 1238 608 1279 Q608 1321 579 1350.5 Q550 1380 509 1380 Z M318 698 L124 698 Q140 834 222 904 Q328 994 520 994 Q643 994 727 954.5 Q811 915 842 843 Q873 771 873 613 L873 234 Q873 71 903 0 L717 0 Q702 56 700 120 Q620 -22 422 -22 Q282 -22 194 41 Q90 115 90 255 Q90 463 313 547 Q419 587 678 632 L678 659 Q678 744 650 779 Q608 831 508 831 Q343 831 318 698 Z M678 493 Q466 461 391 419 Q296 366 296 278 Q296 215 342.5 176 Q389 137 462 137 Q594 137 649 239 Q678 292 678 418 L678 493 Z " />
<glyph glyph-name="ae" unicode="&#xe6;" horiz-adv-x="1629" d="M1550 443 L873 443 Q874 315 927 240 Q1000 136 1143 136 Q1288 136 1350 266 L1531 253 Q1509 157 1437 83 Q1331 -27 1147 -27 Q1019 -27 921 26.5 Q823 80 767 180 Q724 87 661 42 Q567 -27 425 -27 Q290 -27 198 35 Q90 108 90 247 Q90 409 240.5 499.5 Q391 590 668 594 L668 647 Q668 749 636 787 Q596 836 507 836 Q353 836 315 681 L122 681 Q135 809 212 889 Q318 999 517 999 Q632 999 703 965 Q774 931 822 853 Q874 914 921 944 Q1009 999 1127 999 Q1321 999 1438 855 Q1550 718 1550 472 Q1550 462 1550 443 Z M1334 592 Q1303 839 1118 839 Q1025 839 964.5 776 Q904 713 882 592 L1334 592 Z M668 445 Q652 445 645 445 Q550 445 464 426 Q296 388 296 261 Q296 203 339 167.5 Q382 132 453 132 Q559 132 613.5 201 Q668 270 668 405 L668 445 Z " />
<glyph glyph-name="ccedilla" unicode="&#xe7;" horiz-adv-x="987" d="M517 -27 L489 -101 Q671 -134 671 -275 Q671 -357 613 -411 Q555 -465 466 -465 Q392 -465 301 -417 L301 -328 Q386 -362 422 -362 Q471 -362 500 -334 Q529 -306 529 -260 Q529 -211 494.5 -183 Q460 -155 400 -155 Q383 -155 352 -158 L408 -12 Q291 21 222 91 Q79 237 79 484 Q79 753 240 899 Q350 999 522 999 Q686 999 783 909.5 Q880 820 899 651 L701 651 Q686 747 642 791 Q598 835 519 835 Q418 835 361 757 Q285 655 285 484 Q285 321 347.5 229.5 Q410 138 520 138 Q685 138 710 340 L907 340 Q896 170 793.5 73.5 Q691 -23 517 -27 Z " />
<glyph glyph-name="egrave" unicode="&#xe8;" horiz-adv-x="1026" d="M682 1106 L525 1106 L183 1415 L444 1415 L682 1106 Z M946 442 L282 442 Q287 315 336 240 Q403 138 539 138 Q682 138 745 266 L926 253 Q895 149 826 81 Q718 -27 534 -27 Q363 -27 246 69 Q79 206 79 474 Q79 657 156 791 Q276 999 527 999 Q732 999 848 842 Q947 707 947 486 Q947 473 946 442 Z M741 592 Q712 838 522 838 Q336 838 288 592 L741 592 Z " />
<glyph glyph-name="eacute" unicode="&#xe9;" horiz-adv-x="1026" d="M384 1106 L622 1415 L883 1415 L541 1106 L384 1106 Z M946 442 L282 442 Q287 315 336 240 Q403 138 539 138 Q682 138 745 266 L926 253 Q895 149 826 81 Q718 -27 534 -27 Q363 -27 246 69 Q79 206 79 474 Q79 657 156 791 Q276 999 527 999 Q732 999 848 842 Q947 707 947 486 Q947 473 946 442 Z M741 592 Q712 838 522 838 Q336 838 288 592 L741 592 Z " />
<glyph glyph-name="ecircumflex" unicode="&#xea;" horiz-adv-x="1026" d="M200 1115 L440 1415 L625 1415 L865 1115 L679 1115 L533 1299 L387 1115 L200 1115 Z M946 442 L282 442 Q287 315 336 240 Q403 138 539 138 Q682 138 745 266 L926 253 Q895 149 826 81 Q718 -27 534 -27 Q363 -27 246 69 Q79 206 79 474 Q79 657 156 791 Q276 999 527 999 Q732 999 848 842 Q947 707 947 486 Q947 473 946 442 Z M741 592 Q712 838 522 838 Q336 838 288 592 L741 592 Z " />
<glyph glyph-name="edieresis" unicode="&#xeb;" horiz-adv-x="1026" d="M946 442 L282 442 Q287 315 336 240 Q403 138 539 138 Q682 138 745 266 L926 253 Q895 149 826 81 Q718 -27 534 -27 Q363 -27 246 69 Q79 206 79 474 Q79 657 156 791 Q276 999 527 999 Q732 999 848 842 Q947 707 947 486 Q947 473 946 442 Z M741 592 Q712 838 522 838 Q336 838 288 592 L741 592 Z M358 1391 Q409 1391 445 1354.5 Q481 1318 481 1267 Q481 1215 444.5 1178.5 Q408 1142 357 1142 Q305 1142 268.5 1178.5 Q232 1215 232 1266 Q232 1319 268.5 1355 Q305 1391 358 1391 Z M712 1391 Q763 1391 799 1354.5 Q835 1318 835 1267 Q835 1215 798.5 1178.5 Q762 1142 711 1142 Q659 1142 622.5 1178.5 Q586 1215 586 1266 Q586 1319 622.5 1355 Q659 1391 712 1391 Z " />
<glyph glyph-name="igrave" unicode="&#xec;" horiz-adv-x="495" d="M145 972 L350 972 L350 0 L145 0 L145 972 Z M364 1106 L214 1106 L-60 1415 L181 1415 L364 1106 Z " />
<glyph glyph-name="iacute" unicode="&#xed;" horiz-adv-x="495" d="M145 972 L350 972 L350 0 L145 0 L145 972 Z M131 1106 L314 1415 L555 1415 L281 1106 L131 1106 Z " />
<glyph glyph-name="icircumflex" unicode="&#xee;" horiz-adv-x="495" d="M145 972 L350 972 L350 0 L145 0 L145 972 Z M-30 1115 L155 1415 L340 1415 L526 1115 L354 1115 L248 1299 L144 1115 L-30 1115 Z " />
<glyph glyph-name="idieresis" unicode="&#xef;" horiz-adv-x="495" d="M145 972 L350 972 L350 0 L145 0 L145 972 Z M95 1387 Q144 1387 179 1351.5 Q214 1316 214 1266 Q214 1216 179 1181 Q144 1146 94 1146 Q44 1146 8.5 1181 Q-27 1216 -27 1266 Q-27 1317 8.5 1352 Q44 1387 95 1387 Z M404 1387 Q453 1387 488 1351.5 Q523 1316 523 1266 Q523 1217 488 1181.5 Q453 1146 403 1146 Q353 1146 317.5 1181.5 Q282 1217 282 1266 Q282 1317 317.5 1352 Q353 1387 404 1387 Z " />
<glyph glyph-name="eth" unicode="&#xf0;" horiz-adv-x="1066" d="M555 1286 L707 1371 L775 1276 L626 1194 Q848 939 917.5 805 Q987 671 987 497 Q987 239 844 96 Q722 -27 541 -27 Q357 -27 230 92 Q159 159 121 255 Q79 363 79 483 Q79 656 158 787 Q212 877 304.5 930.5 Q397 984 499 984 Q550 984 619 955 L492 1119 L352 1043 L279 1135 L428 1219 L342 1321 L453 1392 L555 1286 Z M539 831 Q440 831 375 760 Q285 662 285 484 Q285 314 371 214 Q436 137 533 137 Q631 137 695 213 Q781 316 781 484 Q781 660 693 761 Q632 831 539 831 Z " />
<glyph glyph-name="ntilde" unicode="&#xf1;" horiz-adv-x="1080" d="M305 1137 L210 1161 Q262 1376 389 1376 Q439 1376 526 1334 Q618 1290 650 1290 Q708 1290 745 1390 L834 1366 Q819 1275 781 1217 Q731 1142 658 1142 Q609 1142 514 1186 Q419 1230 391 1230 Q331 1230 305 1137 Z M118 972 L312 972 Q331 920 332 840 Q436 994 625 994 Q739 994 821 937 Q919 868 935 734 Q941 685 941 560 L941 0 L740 0 L740 526 Q740 676 716 728 Q675 816 565 816 Q440 816 380 710 Q345 649 345 519 L345 0 L144 0 L144 632 Q144 805 140.5 850.5 Q137 896 118 972 Z " />
<glyph glyph-name="ograve" unicode="&#xf2;" horiz-adv-x="1066" d="M675 1106 L518 1106 L176 1415 L437 1415 L675 1106 Z M533 999 Q711 999 836 879 Q907 812 944 715 Q987 606 987 485 Q987 313 910 184 Q841 69 720 14 Q631 -27 534 -27 Q354 -27 230 92 Q79 236 79 492 Q79 656 156 787 Q224 902 346 958 Q435 999 533 999 Z M533 835 Q425 835 360 746 Q285 645 285 490 Q285 326 360 226 Q425 138 533 138 Q642 138 706 226 Q781 327 781 485 Q781 646 706 746 Q640 835 533 835 Z " />
<glyph glyph-name="oacute" unicode="&#xf3;" horiz-adv-x="1066" d="M383 1106 L621 1415 L882 1415 L540 1106 L383 1106 Z M533 999 Q711 999 836 879 Q907 812 944 715 Q987 606 987 485 Q987 313 910 184 Q841 69 720 14 Q631 -27 534 -27 Q354 -27 230 92 Q79 236 79 492 Q79 656 156 787 Q224 902 346 958 Q435 999 533 999 Z M533 835 Q425 835 360 746 Q285 645 285 490 Q285 326 360 226 Q425 138 533 138 Q642 138 706 226 Q781 327 781 485 Q781 646 706 746 Q640 835 533 835 Z " />
<glyph glyph-name="ocircumflex" unicode="&#xf4;" horiz-adv-x="1066" d="M200 1115 L440 1415 L625 1415 L866 1115 L680 1115 L533 1299 L388 1115 L200 1115 Z M533 999 Q711 999 836 879 Q907 812 944 715 Q987 606 987 485 Q987 313 910 184 Q841 69 720 14 Q631 -27 534 -27 Q354 -27 230 92 Q79 236 79 492 Q79 656 156 787 Q224 902 346 958 Q435 999 533 999 Z M533 835 Q425 835 360 746 Q285 645 285 490 Q285 326 360 226 Q425 138 533 138 Q642 138 706 226 Q781 327 781 485 Q781 646 706 746 Q640 835 533 835 Z " />
<glyph glyph-name="otilde" unicode="&#xf5;" horiz-adv-x="1066" d="M327 1137 L232 1161 Q282 1376 410 1376 Q461 1376 548 1334 Q640 1290 672 1290 Q731 1290 766 1390 L856 1366 Q841 1275 802 1217 Q752 1142 680 1142 Q631 1142 536 1186 Q441 1230 413 1230 Q352 1230 327 1137 Z M533 999 Q711 999 836 879 Q907 812 944 715 Q987 606 987 485 Q987 313 910 184 Q841 69 720 14 Q631 -27 534 -27 Q354 -27 230 92 Q79 236 79 492 Q79 656 156 787 Q224 902 346 958 Q435 999 533 999 Z M533 835 Q425 835 360 746 Q285 645 285 490 Q285 326 360 226 Q425 138 533 138 Q642 138 706 226 Q781 327 781 485 Q781 646 706 746 Q640 835 533 835 Z " />
<glyph glyph-name="odieresis" unicode="&#xf6;" horiz-adv-x="1066" d="M533 999 Q711 999 836 879 Q907 812 944 715 Q987 606 987 485 Q987 313 910 184 Q841 69 720 14 Q631 -27 534 -27 Q354 -27 230 92 Q79 236 79 492 Q79 656 156 787 Q224 902 346 958 Q435 999 533 999 Z M533 835 Q425 835 360 746 Q285 645 285 490 Q285 326 360 226 Q425 138 533 138 Q642 138 706 226 Q781 327 781 485 Q781 646 706 746 Q640 835 533 835 Z M358 1391 Q409 1391 445 1354.5 Q481 1318 481 1267 Q481 1215 444.5 1178.5 Q408 1142 357 1142 Q305 1142 268.5 1178.5 Q232 1215 232 1266 Q232 1319 268.5 1355 Q305 1391 358 1391 Z M711 1391 Q762 1391 798 1354.5 Q834 1318 834 1267 Q834 1215 797.5 1178.5 Q761 1142 710 1142 Q658 1142 621.5 1178.5 Q585 1215 585 1266 Q585 1319 621.5 1355 Q658 1391 711 1391 Z " />
<glyph glyph-name="divide" unicode="&#xf7;" horiz-adv-x="1133" d="M568 495 Q618 495 653.5 459.5 Q689 424 689 374 Q689 325 653 289.5 Q617 254 567 254 Q516 254 480.5 289.5 Q445 325 445 374 Q445 425 481 460 Q517 495 568 495 Z M568 1111 Q618 1111 653.5 1075.5 Q689 1040 689 990 Q689 940 653 905 Q617 870 567 870 Q516 870 480.5 905.5 Q445 941 445 990 Q445 1041 481 1076 Q517 1111 568 1111 Z M103 762 L1030 762 L1030 608 L103 608 L103 762 Z " />
<glyph glyph-name="oslash" unicode="&#xf8;" horiz-adv-x="1067" d="M165 165 Q160 175 157 180 Q116 257 103 303 Q79 387 79 482 Q79 659 160 790 Q230 905 352 960 Q438 998 533 998 Q618 998 681.5 974.5 Q745 951 825 890 L902 972 L1045 972 L901 810 Q907 793 937 736 Q987 643 987 485 Q987 311 906 180 Q835 65 714 11 Q628 -27 532 -27 Q360 -27 241 82 L169 0 L21 0 L165 165 Z M310 318 L695 756 Q672 791 626.5 812.5 Q581 834 529 834 Q429 834 364 748 Q285 645 285 480 Q285 399 310 318 Z M752 658 L367 211 Q444 137 533 137 Q636 137 702 222 Q781 325 781 491 Q781 568 752 658 Z " />
<glyph glyph-name="ugrave" unicode="&#xf9;" horiz-adv-x="1082" d="M702 1106 L545 1106 L202 1415 L464 1415 L702 1106 Z M139 972 L340 972 L340 399 Q340 270 374 223 Q421 156 523 156 Q644 156 701 255 Q736 316 736 438 L736 972 L937 972 L937 298 Q937 136 940 97.5 Q943 59 961 0 L768 0 Q752 48 748 120 Q657 -22 481 -22 Q385 -22 308 17 Q231 56 188 126 Q139 205 139 392 L139 972 Z " />
<glyph glyph-name="uacute" unicode="&#xfa;" horiz-adv-x="1082" d="M388 1106 L626 1415 L887 1415 L545 1106 L388 1106 Z M139 972 L340 972 L340 399 Q340 270 374 223 Q421 156 523 156 Q644 156 701 255 Q736 316 736 438 L736 972 L937 972 L937 298 Q937 136 940 97.5 Q943 59 961 0 L768 0 Q752 48 748 120 Q657 -22 481 -22 Q385 -22 308 17 Q231 56 188 126 Q139 205 139 392 L139 972 Z " />
<glyph glyph-name="ucircumflex" unicode="&#xfb;" horiz-adv-x="1082" d="M204 1115 L443 1415 L629 1415 L869 1115 L683 1115 L536 1299 L391 1115 L204 1115 Z M139 972 L340 972 L340 399 Q340 270 374 223 Q421 156 523 156 Q644 156 701 255 Q736 316 736 438 L736 972 L937 972 L937 298 Q937 136 940 97.5 Q943 59 961 0 L768 0 Q752 48 748 120 Q657 -22 481 -22 Q385 -22 308 17 Q231 56 188 126 Q139 205 139 392 L139 972 Z " />
<glyph glyph-name="udieresis" unicode="&#xfc;" horiz-adv-x="1082" d="M139 972 L340 972 L340 399 Q340 270 374 223 Q421 156 523 156 Q644 156 701 255 Q736 316 736 438 L736 972 L937 972 L937 298 Q937 136 940 97.5 Q943 59 961 0 L768 0 Q752 48 748 120 Q657 -22 481 -22 Q385 -22 308 17 Q231 56 188 126 Q139 205 139 392 L139 972 Z M361 1391 Q412 1391 448 1354.5 Q484 1318 484 1267 Q484 1215 447.5 1178.5 Q411 1142 360 1142 Q308 1142 271.5 1178.5 Q235 1215 235 1266 Q235 1319 271.5 1355 Q308 1391 361 1391 Z M715 1391 Q766 1391 802 1354.5 Q838 1318 838 1267 Q838 1215 801.5 1178.5 Q765 1142 714 1142 Q662 1142 625.5 1178.5 Q589 1215 589 1266 Q589 1319 625.5 1355 Q662 1391 715 1391 Z " />
<glyph glyph-name="yacute" unicode="&#xfd;" horiz-adv-x="964" d="M33 972 L247 972 L485 199 L732 972 L942 972 L617 47 Q567 -96 552.5 -131.5 Q538 -167 508 -219 Q398 -410 121 -410 Q101 -410 56 -408 L56 -233 Q81 -233 92 -233 Q216 -233 272 -192 Q328 -151 373 -28 L33 972 Z M338 1106 L576 1415 L837 1415 L495 1106 L338 1106 Z " />
<glyph glyph-name="thorn" unicode="&#xfe;" horiz-adv-x="1084" d="M145 -403 L145 1373 L346 1373 L346 844 Q440 994 607 994 Q755 994 856 895 Q1004 751 1004 489 Q1004 216 848 68 Q753 -22 614 -22 Q526 -22 464.5 10 Q403 42 346 119 L346 -403 L145 -403 Z M576 823 Q480 823 423 754 Q342 656 342 482 Q342 316 418 224 Q480 149 575 149 Q671 149 721 213 Q798 312 798 485 Q798 657 720 757 Q668 823 576 823 Z " />
<glyph glyph-name="ydieresis" unicode="&#xff;" horiz-adv-x="964" d="M33 972 L247 972 L485 199 L732 972 L942 972 L617 47 Q567 -96 552.5 -131.5 Q538 -167 508 -219 Q398 -410 121 -410 Q101 -410 56 -408 L56 -233 Q81 -233 92 -233 Q216 -233 272 -192 Q328 -151 373 -28 L33 972 Z M306 1391 Q357 1391 393 1354.5 Q429 1318 429 1267 Q429 1215 392.5 1178.5 Q356 1142 305 1142 Q253 1142 216.5 1178.5 Q180 1215 180 1266 Q180 1319 216.5 1355 Q253 1391 306 1391 Z M659 1391 Q710 1391 746 1354.5 Q782 1318 782 1267 Q782 1215 745.5 1178.5 Q709 1142 658 1142 Q606 1142 569.5 1178.5 Q533 1215 533 1266 Q533 1319 569.5 1355 Q606 1391 659 1391 Z " />
<glyph glyph-name="Amacron" unicode="&#x100;" horiz-adv-x="1198" d="M495 1369 L700 1369 L1167 0 L948 0 L847 320 L350 320 L247 0 L30 0 L495 1369 Z M791 502 L598 1116 L405 502 L791 502 Z M288 1706 L909 1706 L909 1574 L288 1574 L288 1706 Z " />
<glyph glyph-name="amacron" unicode="&#x101;" horiz-adv-x="1014" d="M216 1326 L792 1326 L792 1196 L216 1196 L216 1326 Z M318 698 L124 698 Q140 834 222 904 Q328 994 520 994 Q643 994 727 954.5 Q811 915 842 843 Q873 771 873 613 L873 234 Q873 71 903 0 L717 0 Q702 56 700 120 Q620 -22 422 -22 Q282 -22 194 41 Q90 115 90 255 Q90 463 313 547 Q419 587 678 632 L678 659 Q678 744 650 779 Q608 831 508 831 Q343 831 318 698 Z M678 493 Q466 461 391 419 Q296 366 296 278 Q296 215 342.5 176 Q389 137 462 137 Q594 137 649 239 Q678 292 678 418 L678 493 Z " />
<glyph glyph-name="Abreve" unicode="&#x102;" horiz-adv-x="1198" d="M495 1369 L700 1369 L1167 0 L948 0 L847 320 L350 320 L247 0 L30 0 L495 1369 Z M791 502 L598 1116 L405 502 L791 502 Z M308 1781 L398 1781 Q463 1630 599 1630 Q733 1630 800 1781 L889 1781 Q879 1687 832 1620 Q747 1498 600 1498 Q483 1498 403 1575.5 Q323 1653 308 1781 Z " />
<glyph glyph-name="abreve" unicode="&#x103;" horiz-adv-x="1014" d="M236 1396 L331 1396 Q386 1246 504 1246 Q616 1246 671 1396 L766 1396 Q756 1299 715 1231 Q643 1109 507 1109 Q397 1109 323 1187.5 Q249 1266 236 1396 Z M318 698 L124 698 Q140 834 222 904 Q328 994 520 994 Q643 994 727 954.5 Q811 915 842 843 Q873 771 873 613 L873 234 Q873 71 903 0 L717 0 Q702 56 700 120 Q620 -22 422 -22 Q282 -22 194 41 Q90 115 90 255 Q90 463 313 547 Q419 587 678 632 L678 659 Q678 744 650 779 Q608 831 508 831 Q343 831 318 698 Z M678 493 Q466 461 391 419 Q296 366 296 278 Q296 215 342.5 176 Q389 137 462 137 Q594 137 649 239 Q678 292 678 418 L678 493 Z " />
<glyph glyph-name="Aogonek" unicode="&#x104;" horiz-adv-x="1198" d="M1167 0 Q1065 -75 1027 -119 Q989 -163 989 -205 Q989 -249 1019 -274.5 Q1049 -300 1101 -300 Q1141 -300 1194 -282 L1194 -385 Q1120 -417 1053 -417 Q942 -417 879 -349 Q829 -294 829 -221 Q829 -148 871.5 -99 Q914 -50 1021 0 L949 0 L846 320 L349 320 L247 0 L30 0 L495 1369 L700 1369 L1167 0 Z M791 502 L598 1115 L404 502 L791 502 Z " />
<glyph glyph-name="aogonek" unicode="&#x105;" horiz-adv-x="1014" d="M902 0 Q827 -48 781 -103 Q735 -158 735 -198 Q735 -238 762.5 -261.5 Q790 -285 838 -285 Q882 -285 928 -266 L928 -365 Q867 -393 802 -393 Q692 -393 633 -330 Q587 -280 587 -209 Q587 -140 630 -91.5 Q673 -43 770 0 L716 0 Q702 58 700 120 Q620 -22 422 -22 Q280 -22 194 41 Q90 116 90 255 Q90 355 147.5 430 Q205 505 313 546 Q419 587 678 632 L678 664 Q678 744 650 779 Q608 831 507 831 Q343 831 318 698 L124 698 Q140 834 222 904 Q328 994 520 994 Q643 994 727 954.5 Q811 915 842 843 Q873 771 873 613 L873 234 Q873 75 902 0 Z M678 493 Q466 461 391 419 Q296 366 296 279 Q296 215 342 176 Q388 137 462 137 Q594 137 649 239 Q678 292 678 418 L678 493 Z " />
<glyph glyph-name="Cacute" unicode="&#x106;" horiz-adv-x="1230" d="M484 1486 L798 1794 L1059 1794 L679 1486 L484 1486 Z M1139 952 L952 952 Q903 1206 671 1206 Q519 1206 427 1089 Q310 941 310 682 Q310 435 417 287 Q510 159 672 159 Q802 159 878 243.5 Q954 328 967 487 L1159 487 Q1150 308 1080 187 Q957 -25 682 -25 Q443 -25 283 132 Q88 323 88 680 Q88 944 192 1119 Q287 1279 455 1347 Q559 1390 673 1390 Q877 1390 998.5 1275.5 Q1120 1161 1139 952 Z " />
<glyph glyph-name="cacute" unicode="&#x107;" horiz-adv-x="987" d="M372 1106 L610 1415 L871 1415 L529 1106 L372 1106 Z M900 651 L702 651 Q686 747 642.5 791 Q599 835 519 835 Q419 835 361 757 Q285 655 285 483 Q285 321 347.5 229 Q410 137 520 137 Q633 137 681 228 Q701 267 711 340 L907 340 Q897 190 808 88 Q707 -27 521 -27 Q341 -27 222 90 Q79 231 79 484 Q79 752 240 899 Q351 999 523 999 Q686 999 783 909.5 Q880 820 900 651 Z " />
<glyph glyph-name="Ccircumflex" unicode="&#x108;" horiz-adv-x="1230" d="M1139 952 L952 952 Q903 1206 671 1206 Q519 1206 427 1089 Q310 941 310 682 Q310 435 417 287 Q510 159 672 159 Q802 159 878 243.5 Q954 328 967 487 L1159 487 Q1150 308 1080 187 Q957 -25 682 -25 Q443 -25 283 132 Q88 323 88 680 Q88 944 192 1119 Q287 1279 455 1347 Q559 1390 673 1390 Q877 1390 998.5 1275.5 Q1120 1161 1139 952 Z M310 1500 L584 1779 L769 1779 L1043 1500 L850 1500 L677 1669 L504 1500 L310 1500 Z " />
<glyph glyph-name="ccircumflex" unicode="&#x109;" horiz-adv-x="987" d="M900 651 L702 651 Q686 747 642.5 791 Q599 835 519 835 Q419 835 361 757 Q285 655 285 483 Q285 321 347.5 229 Q410 137 520 137 Q633 137 681 228 Q701 267 711 340 L907 340 Q897 190 808 88 Q707 -27 521 -27 Q341 -27 222 90 Q79 231 79 484 Q79 752 240 899 Q351 999 523 999 Q686 999 783 909.5 Q880 820 900 651 Z M173 1115 L413 1415 L598 1415 L838 1115 L652 1115 L505 1299 L360 1115 L173 1115 Z " />
<glyph glyph-name="Cdotaccent" unicode="&#x10a;" horiz-adv-x="1230" d="M669 1786 Q729 1786 771.5 1743 Q814 1700 814 1639 Q814 1579 771 1536 Q728 1493 667 1493 Q607 1493 564 1536 Q521 1579 521 1639 Q521 1701 564 1743.5 Q607 1786 669 1786 Z M1139 952 L952 952 Q903 1206 671 1206 Q519 1206 427 1089 Q310 941 310 682 Q310 435 417 287 Q510 159 672 159 Q802 159 878 243.5 Q954 328 967 487 L1159 487 Q1150 308 1080 187 Q957 -25 682 -25 Q443 -25 283 132 Q88 323 88 680 Q88 944 192 1119 Q287 1279 455 1347 Q559 1390 673 1390 Q877 1390 998.5 1275.5 Q1120 1161 1139 952 Z " />
<glyph glyph-name="cdotaccent" unicode="&#x10b;" horiz-adv-x="987" d="M518 1391 Q569 1391 605 1354.5 Q641 1318 641 1267 Q641 1215 604.5 1178.5 Q568 1142 517 1142 Q465 1142 428.5 1178.5 Q392 1215 392 1266 Q392 1319 428.5 1355 Q465 1391 518 1391 Z M900 651 L702 651 Q686 747 642.5 791 Q599 835 519 835 Q419 835 361 757 Q285 655 285 483 Q285 321 347.5 229 Q410 137 520 137 Q633 137 681 228 Q701 267 711 340 L907 340 Q897 190 808 88 Q707 -27 521 -27 Q341 -27 222 90 Q79 231 79 484 Q79 752 240 899 Q351 999 523 999 Q686 999 783 909.5 Q880 820 900 651 Z " />
<glyph glyph-name="Ccaron" unicode="&#x10c;" horiz-adv-x="1230" d="M1036 1779 L762 1500 L577 1500 L302 1779 L496 1779 L669 1610 L841 1779 L1036 1779 Z M1139 952 L952 952 Q903 1206 671 1206 Q519 1206 427 1089 Q310 941 310 682 Q310 435 417 287 Q510 159 672 159 Q802 159 878 243.5 Q954 328 967 487 L1159 487 Q1150 308 1080 187 Q957 -25 682 -25 Q443 -25 283 132 Q88 323 88 680 Q88 944 192 1119 Q287 1279 455 1347 Q559 1390 673 1390 Q877 1390 998.5 1275.5 Q1120 1161 1139 952 Z " />
<glyph glyph-name="ccaron" unicode="&#x10d;" horiz-adv-x="987" d="M852 1415 L612 1115 L427 1115 L186 1415 L372 1415 L519 1231 L664 1415 L852 1415 Z M900 651 L702 651 Q686 747 642.5 791 Q599 835 519 835 Q419 835 361 757 Q285 655 285 483 Q285 321 347.5 229 Q410 137 520 137 Q633 137 681 228 Q701 267 711 340 L907 340 Q897 190 808 88 Q707 -27 521 -27 Q341 -27 222 90 Q79 231 79 484 Q79 752 240 899 Q351 999 523 999 Q686 999 783 909.5 Q880 820 900 651 Z " />
<glyph glyph-name="Dcaron" unicode="&#x10e;" horiz-adv-x="1304" d="M169 1365 L446 1365 Q619 1365 719.5 1348.5 Q820 1332 897 1291 Q1054 1208 1143 1024 Q1215 873 1215 683 Q1215 404 1066 214 Q931 40 698 12 Q603 0 417 0 L169 0 L169 1365 Z M380 182 L490 182 Q625 182 692 195.5 Q759 209 817 248 Q916 314 963 455 Q997 558 997 685 Q997 890 905 1025 Q822 1148 669 1172 Q600 1184 439 1184 L380 1184 L380 182 Z M976 1779 L702 1500 L517 1500 L242 1779 L436 1779 L609 1610 L781 1779 L976 1779 Z " />
<glyph glyph-name="dcaron" unicode="&#x10f;" horiz-adv-x="1266" d="M938 1373 L938 298 Q938 83 956 0 L766 0 Q754 52 754 95 Q754 111 756 137 Q718 72 677 40 Q600 -22 482 -22 Q321 -22 217 85 Q79 226 79 477 Q79 746 231 895 Q332 994 474 994 Q564 994 623 961.5 Q682 929 737 851 L737 1373 L938 1373 Z M518 823 Q419 823 364 755 Q285 656 285 480 Q285 318 359 220 Q412 149 510 149 Q606 149 660 215 Q741 313 741 487 Q741 652 672 746 Q616 823 518 823 Z M1165 941 L1060 941 Q1158 1051 1170 1160 Q1125 1162 1099 1178 Q1047 1210 1047 1271 Q1047 1322 1083.5 1357 Q1120 1392 1173 1392 Q1233 1392 1269.5 1347.5 Q1306 1303 1306 1231 Q1306 1102 1165 941 Z " />
<glyph glyph-name="Dcroat" unicode="&#x110;" horiz-adv-x="1304" d="M170 1365 L447 1365 Q620 1365 720 1348.5 Q820 1332 898 1291 Q1056 1208 1144 1023 Q1216 873 1216 683 Q1216 404 1067 214 Q932 40 699 12 Q604 0 418 0 L170 0 L170 628 L47 628 L47 799 L170 799 L170 1365 Z M381 182 L491 182 Q626 182 693 195.5 Q760 209 818 248 Q917 313 964 454 Q998 557 998 684 Q998 890 906 1025 Q822 1148 670 1172 Q601 1183 440 1183 L381 1183 L381 799 L678 799 L678 628 L381 628 L381 182 Z " />
<glyph glyph-name="dcroat" unicode="&#x111;" horiz-adv-x="1084" d="M938 1373 L938 1237 L1061 1237 L1061 1100 L938 1100 L938 298 Q938 83 956 0 L766 0 Q754 52 754 95 Q754 111 756 137 Q718 72 677 40 Q600 -22 482 -22 Q321 -22 217 85 Q79 226 79 477 Q79 745 232 895 Q332 994 475 994 Q564 994 623 961.5 Q682 929 737 851 L737 1100 L478 1100 L478 1237 L737 1237 L737 1373 L938 1373 Z M518 823 Q419 823 364 755 Q285 656 285 480 Q285 318 359 220 Q412 149 510 149 Q606 149 660 215 Q741 313 741 487 Q741 652 672 746 Q616 823 518 823 Z " />
<glyph glyph-name="Emacron" unicode="&#x112;" horiz-adv-x="1066" d="M380 798 L928 798 L928 616 L380 616 L380 182 L995 182 L995 0 L169 0 L169 1365 L977 1365 L977 1184 L380 1184 L380 798 Z M265 1706 L886 1706 L886 1574 L265 1574 L265 1706 Z " />
<glyph glyph-name="emacron" unicode="&#x113;" horiz-adv-x="1026" d="M245 1326 L821 1326 L821 1196 L245 1196 L245 1326 Z M946 442 L282 442 Q287 315 336 240 Q403 138 539 138 Q682 138 745 266 L926 253 Q895 149 826 81 Q718 -27 534 -27 Q363 -27 246 69 Q79 206 79 474 Q79 657 156 791 Q276 999 527 999 Q732 999 848 842 Q947 707 947 486 Q947 473 946 442 Z M741 592 Q712 838 522 838 Q336 838 288 592 L741 592 Z " />
<glyph glyph-name="Ebreve" unicode="&#x114;" horiz-adv-x="1066" d="M380 798 L928 798 L928 616 L380 616 L380 182 L995 182 L995 0 L169 0 L169 1365 L977 1365 L977 1184 L380 1184 L380 798 Z M283 1781 L373 1781 Q439 1630 575 1630 Q709 1630 775 1781 L865 1781 Q854 1686 808 1620 Q723 1498 575 1498 Q458 1498 378 1575.5 Q298 1653 283 1781 Z " />
<glyph glyph-name="ebreve" unicode="&#x115;" horiz-adv-x="1026" d="M946 442 L282 442 Q287 315 336 240 Q403 138 539 138 Q682 138 745 266 L926 253 Q895 149 826 81 Q718 -27 534 -27 Q363 -27 246 69 Q79 206 79 474 Q79 657 156 791 Q276 999 527 999 Q732 999 848 842 Q947 707 947 486 Q947 473 946 442 Z M741 592 Q712 838 522 838 Q336 838 288 592 L741 592 Z M268 1396 L363 1396 Q419 1246 537 1246 Q647 1246 704 1396 L799 1396 Q789 1300 748 1231 Q675 1109 539 1109 Q429 1109 355 1187.5 Q281 1266 268 1396 Z " />
<glyph glyph-name="Edotaccent" unicode="&#x116;" horiz-adv-x="1066" d="M380 798 L928 798 L928 616 L380 616 L380 182 L995 182 L995 0 L169 0 L169 1365 L977 1365 L977 1184 L380 1184 L380 798 Z M578 1786 Q637 1786 679.5 1743 Q722 1700 722 1640 Q722 1579 679 1536 Q636 1493 576 1493 Q515 1493 472 1536 Q429 1579 429 1639 Q429 1701 472 1743.5 Q515 1786 578 1786 Z " />
<glyph glyph-name="edotaccent" unicode="&#x117;" horiz-adv-x="1026" d="M536 1391 Q587 1391 623 1354.5 Q659 1318 659 1267 Q659 1215 622.5 1178.5 Q586 1142 535 1142 Q483 1142 446.5 1178.5 Q410 1215 410 1266 Q410 1319 446.5 1355 Q483 1391 536 1391 Z M946 442 L282 442 Q287 315 336 240 Q403 138 539 138 Q682 138 745 266 L926 253 Q895 149 826 81 Q718 -27 534 -27 Q363 -27 246 69 Q79 206 79 474 Q79 657 156 791 Q276 999 527 999 Q732 999 848 842 Q947 707 947 486 Q947 473 946 442 Z M741 592 Q712 838 522 838 Q336 838 288 592 L741 592 Z " />
<glyph glyph-name="Eogonek" unicode="&#x118;" horiz-adv-x="1066" d="M995 0 Q882 -83 847 -122.5 Q812 -162 812 -206 Q812 -249 842 -274.5 Q872 -300 924 -300 Q965 -300 1017 -282 L1017 -385 Q943 -417 876 -417 Q765 -417 703 -349 Q652 -294 652 -220 Q652 -148 696 -97 Q740 -46 842 0 L169 0 L169 1365 L977 1365 L977 1184 L380 1184 L380 798 L928 798 L928 616 L380 616 L380 182 L995 182 L995 0 Z " />
<glyph glyph-name="eogonek" unicode="&#x119;" horiz-adv-x="1026" d="M858 -266 L858 -365 Q798 -392 728 -392 Q622 -392 563 -329 Q517 -278 517 -207 Q517 -146 548 -104.5 Q579 -63 663 -10 Q589 -27 536 -27 Q399 -27 294 36 Q188 98 133 213 Q79 325 79 474 Q79 657 156 791 Q276 999 527 999 Q732 999 848 842 Q947 707 947 486 Q947 473 946 442 L282 442 Q287 315 336 240 Q403 138 539 138 Q682 138 745 266 L926 253 Q911 197 885.5 156 Q860 115 774 9 Q714 -65 689.5 -111 Q665 -157 665 -197 Q665 -284 768 -284 Q813 -284 858 -266 Z M741 592 Q712 838 522 838 Q336 838 288 592 L741 592 Z " />
<glyph glyph-name="Ecaron" unicode="&#x11a;" horiz-adv-x="1066" d="M380 798 L928 798 L928 616 L380 616 L380 182 L995 182 L995 0 L169 0 L169 1365 L977 1365 L977 1184 L380 1184 L380 798 Z M942 1779 L668 1500 L483 1500 L208 1779 L402 1779 L575 1610 L747 1779 L942 1779 Z " />
<glyph glyph-name="ecaron" unicode="&#x11b;" horiz-adv-x="1026" d="M865 1415 L625 1115 L440 1115 L200 1415 L386 1415 L532 1231 L678 1415 L865 1415 Z M946 442 L282 442 Q287 315 336 240 Q403 138 539 138 Q682 138 745 266 L926 253 Q895 149 826 81 Q718 -27 534 -27 Q363 -27 246 69 Q79 206 79 474 Q79 657 156 791 Q276 999 527 999 Q732 999 848 842 Q947 707 947 486 Q947 473 946 442 Z M741 592 Q712 838 522 838 Q336 838 288 592 L741 592 Z " />
<glyph glyph-name="Gcircumflex" unicode="&#x11c;" horiz-adv-x="1295" d="M311 1500 L585 1779 L770 1779 L1045 1500 L851 1500 L678 1669 L506 1500 L311 1500 Z M721 692 L1177 692 L1177 127 Q961 -25 700 -25 Q443 -25 281 135 Q88 328 88 685 Q88 1038 282 1232 Q441 1390 677 1390 Q796 1390 896.5 1347.5 Q997 1305 1061 1226 Q1142 1128 1158 955 L971 955 Q925 1206 679 1206 Q520 1206 431 1096 Q310 949 310 685 Q310 423 428 277 Q523 159 699 159 Q856 159 997 248 L997 526 L721 526 L721 692 Z " />
<glyph glyph-name="gcircumflex" unicode="&#x11d;" horiz-adv-x="1040" d="M201 1115 L441 1415 L626 1415 L867 1115 L681 1115 L534 1299 L388 1115 L201 1115 Z M999 972 L999 825 L800 827 Q866 752 866 630 Q866 547 829.5 483.5 Q793 420 727 389 Q676 365 631.5 355 Q587 345 440 323 Q396 317 367 297 Q338 277 338 253 Q338 224 370.5 214 Q403 204 543 190 Q769 168 847 127 Q907 95 941 35 Q975 -25 975 -100 Q975 -258 837 -342 Q718 -414 513 -414 Q285 -414 158 -328 Q49 -253 49 -131 Q49 32 249 102 Q142 145 142 218 Q142 267 181 302 Q220 337 315 374 Q240 408 201 454 Q136 532 136 652 Q136 809 245 902 Q348 990 519 990 Q597 990 689 964 L999 972 Z M508 835 Q421 835 368.5 785.5 Q316 736 316 654 Q316 580 363 535 Q414 484 502 484 Q587 484 638.5 530.5 Q690 577 690 654 Q690 734 639 784.5 Q588 835 508 835 Z M490 28 Q377 28 307 -3 Q225 -40 225 -115 Q225 -188 311 -225 Q395 -261 515 -261 Q638 -261 709.5 -222.5 Q781 -184 781 -118 Q781 -48 705.5 -10 Q630 28 490 28 Z " />
<glyph glyph-name="Gbreve" unicode="&#x11e;" horiz-adv-x="1295" d="M385 1781 L475 1781 Q540 1630 677 1630 Q811 1630 877 1781 L967 1781 Q956 1686 910 1620 Q825 1498 677 1498 Q560 1498 480 1575.5 Q400 1653 385 1781 Z M721 692 L1177 692 L1177 127 Q961 -25 700 -25 Q443 -25 281 135 Q88 328 88 685 Q88 1038 282 1232 Q441 1390 677 1390 Q796 1390 896.5 1347.5 Q997 1305 1061 1226 Q1142 1128 1158 955 L971 955 Q925 1206 679 1206 Q520 1206 431 1096 Q310 949 310 685 Q310 423 428 277 Q523 159 699 159 Q856 159 997 248 L997 526 L721 526 L721 692 Z " />
<glyph glyph-name="gbreve" unicode="&#x11f;" horiz-adv-x="1040" d="M269 1396 L364 1396 Q419 1246 537 1246 Q649 1246 704 1396 L799 1396 Q789 1300 748 1231 Q676 1109 539 1109 Q430 1109 356 1187.5 Q282 1266 269 1396 Z M999 972 L999 825 L800 827 Q866 752 866 630 Q866 547 829.5 483.5 Q793 420 727 389 Q676 365 631.5 355 Q587 345 440 323 Q396 317 367 297 Q338 277 338 253 Q338 224 370.5 214 Q403 204 543 190 Q769 168 847 127 Q907 95 941 35 Q975 -25 975 -100 Q975 -258 837 -342 Q718 -414 513 -414 Q285 -414 158 -328 Q49 -253 49 -131 Q49 32 249 102 Q142 145 142 218 Q142 267 181 302 Q220 337 315 374 Q240 408 201 454 Q136 532 136 652 Q136 809 245 902 Q348 990 519 990 Q597 990 689 964 L999 972 Z M508 835 Q421 835 368.5 785.5 Q316 736 316 654 Q316 580 363 535 Q414 484 502 484 Q587 484 638.5 530.5 Q690 577 690 654 Q690 734 639 784.5 Q588 835 508 835 Z M490 28 Q377 28 307 -3 Q225 -40 225 -115 Q225 -188 311 -225 Q395 -261 515 -261 Q638 -261 709.5 -222.5 Q781 -184 781 -118 Q781 -48 705.5 -10 Q630 28 490 28 Z " />
<glyph glyph-name="Gdotaccent" unicode="&#x120;" horiz-adv-x="1295" d="M680 1786 Q740 1786 782.5 1743 Q825 1700 825 1639 Q825 1579 782 1536 Q739 1493 679 1493 Q618 1493 575 1536 Q532 1579 532 1639 Q532 1701 575 1743.5 Q618 1786 680 1786 Z M721 692 L1177 692 L1177 127 Q961 -25 700 -25 Q443 -25 281 135 Q88 328 88 685 Q88 1038 282 1232 Q441 1390 677 1390 Q796 1390 896.5 1347.5 Q997 1305 1061 1226 Q1142 1128 1158 955 L971 955 Q925 1206 679 1206 Q520 1206 431 1096 Q310 949 310 685 Q310 423 428 277 Q523 159 699 159 Q856 159 997 248 L997 526 L721 526 L721 692 Z " />
<glyph glyph-name="gdotaccent" unicode="&#x121;" horiz-adv-x="1040" d="M999 972 L999 825 L800 827 Q866 752 866 630 Q866 547 829.5 483.5 Q793 420 727 389 Q676 365 631.5 355 Q587 345 440 323 Q396 317 367 297 Q338 277 338 253 Q338 224 370.5 214 Q403 204 543 190 Q769 168 847 127 Q907 95 941 35 Q975 -25 975 -100 Q975 -258 837 -342 Q718 -414 513 -414 Q285 -414 158 -328 Q49 -253 49 -131 Q49 32 249 102 Q142 145 142 218 Q142 267 181 302 Q220 337 315 374 Q240 408 201 454 Q136 532 136 652 Q136 809 245 902 Q348 990 519 990 Q597 990 689 964 L999 972 Z M508 835 Q421 835 368.5 785.5 Q316 736 316 654 Q316 580 363 535 Q414 484 502 484 Q587 484 638.5 530.5 Q690 577 690 654 Q690 734 639 784.5 Q588 835 508 835 Z M490 28 Q377 28 307 -3 Q225 -40 225 -115 Q225 -188 311 -225 Q395 -261 515 -261 Q638 -261 709.5 -222.5 Q781 -184 781 -118 Q781 -48 705.5 -10 Q630 28 490 28 Z M534 1391 Q585 1391 621 1354.5 Q657 1318 657 1267 Q657 1215 620.5 1178.5 Q584 1142 533 1142 Q481 1142 444.5 1178.5 Q408 1215 408 1266 Q408 1319 444.5 1355 Q481 1391 534 1391 Z " />
<glyph glyph-name="Gcommaaccent" unicode="&#x122;" horiz-adv-x="1295" d="M677 -555 L574 -555 Q671 -447 683 -338 Q639 -336 613 -321 Q562 -289 562 -229 Q562 -178 598 -143.5 Q634 -109 686 -109 Q745 -109 781 -153 Q817 -197 817 -268 Q817 -395 677 -555 Z M721 692 L1177 692 L1177 127 Q961 -25 700 -25 Q443 -25 281 135 Q88 328 88 685 Q88 1038 282 1232 Q441 1390 677 1390 Q796 1390 896.5 1347.5 Q997 1305 1061 1226 Q1142 1128 1158 955 L971 955 Q925 1206 679 1206 Q520 1206 431 1096 Q310 949 310 685 Q310 423 428 277 Q523 159 699 159 Q856 159 997 248 L997 526 L721 526 L721 692 Z " />
<glyph glyph-name="gcommaaccent" unicode="&#x123;" horiz-adv-x="1040" d="M999 972 L999 825 L800 827 Q866 752 866 630 Q866 547 829.5 483.5 Q793 420 727 389 Q676 365 631.5 355 Q587 345 440 323 Q396 317 367 297 Q338 277 338 253 Q338 224 370.5 214 Q403 204 543 190 Q769 168 847 127 Q907 95 941 35 Q975 -25 975 -100 Q975 -258 837 -342 Q718 -414 513 -414 Q285 -414 158 -328 Q49 -253 49 -131 Q49 32 249 102 Q142 145 142 218 Q142 267 181 302 Q220 337 315 374 Q240 408 201 454 Q136 532 136 652 Q136 809 245 902 Q348 990 519 990 Q597 990 689 964 L999 972 Z M508 835 Q421 835 368.5 785.5 Q316 736 316 654 Q316 580 363 535 Q414 484 502 484 Q587 484 638.5 530.5 Q690 577 690 654 Q690 734 639 784.5 Q588 835 508 835 Z M490 28 Q377 28 307 -3 Q225 -40 225 -115 Q225 -188 311 -225 Q395 -261 515 -261 Q638 -261 709.5 -222.5 Q781 -184 781 -118 Q781 -48 705.5 -10 Q630 28 490 28 Z M543 1556 L648 1556 Q550 1447 538 1337 Q583 1335 609 1319 Q660 1287 660 1226 Q660 1175 623.5 1140 Q587 1105 535 1105 Q475 1105 438.5 1149.5 Q402 1194 402 1266 Q402 1397 543 1556 Z " />
<glyph glyph-name="Hcircumflex" unicode="&#x124;" horiz-adv-x="1350" d="M380 800 L969 800 L969 1365 L1180 1365 L1180 0 L969 0 L969 625 L380 625 L380 0 L169 0 L169 1365 L380 1365 L380 800 Z M308 1500 L582 1779 L767 1779 L1042 1500 L848 1500 L675 1669 L503 1500 L308 1500 Z " />
<glyph glyph-name="hcircumflex" unicode="&#x125;" horiz-adv-x="1086" d="M145 1373 L346 1373 L346 861 Q454 994 625 994 Q713 994 786.5 958.5 Q860 923 898 863 Q927 818 937 755.5 Q947 693 947 560 L947 0 L746 0 L746 526 Q746 672 720 726 Q675 816 565 816 Q442 816 381 708 Q346 644 346 515 L346 0 L145 0 L145 1373 Z M52 1500 L326 1779 L511 1779 L786 1500 L592 1500 L419 1669 L247 1500 L52 1500 Z " />
<glyph glyph-name="Hbar" unicode="&#x126;" horiz-adv-x="1350" d="M969 1159 L969 1365 L1180 1365 L1180 1159 L1303 1159 L1303 988 L1180 988 L1180 0 L969 0 L969 625 L380 625 L380 0 L169 0 L169 988 L46 988 L46 1159 L169 1159 L169 1365 L380 1365 L380 1159 L969 1159 Z M969 988 L380 988 L380 800 L969 800 L969 988 Z " />
<glyph glyph-name="hbar" unicode="&#x127;" horiz-adv-x="1086" d="M145 1373 L346 1373 L346 1237 L619 1237 L619 1100 L346 1100 L346 861 Q454 994 625 994 Q712 994 786 958.5 Q860 923 899 863 Q928 816 937.5 756.5 Q947 697 947 560 L947 0 L746 0 L746 526 Q746 674 720 726 Q674 816 565 816 Q508 816 459 787 Q410 758 381 707 Q346 643 346 515 L346 0 L145 0 L145 1100 L22 1100 L22 1237 L145 1237 L145 1373 Z " />
<glyph glyph-name="Itilde" unicode="&#x128;" horiz-adv-x="550" d="M382 0 L169 0 L169 1365 L382 1365 L382 0 Z M32 1510 L-72 1541 Q-15 1749 126 1749 Q177 1749 276 1707 Q382 1663 416 1663 Q479 1663 520 1763 L615 1733 Q601 1660 570 1610 Q510 1516 419 1516 Q373 1516 258 1563 Q162 1603 127 1603 Q59 1603 32 1510 Z " />
<glyph glyph-name="itilde" unicode="&#x129;" horiz-adv-x="495" d="M145 972 L350 972 L350 0 L145 0 L145 972 Z M31 1137 L-64 1161 Q-14 1376 114 1376 Q165 1376 252 1334 Q344 1290 376 1290 Q435 1290 471 1390 L560 1366 Q545 1275 506 1217 Q456 1142 384 1142 Q336 1142 240 1186 Q145 1230 117 1230 Q57 1230 31 1137 Z " />
<glyph glyph-name="Imacron" unicode="&#x12a;" horiz-adv-x="551" d="M381 0 L168 0 L168 1365 L381 1365 L381 0 Z M19 1706 L531 1706 L531 1574 L19 1574 L19 1706 Z " />
<glyph glyph-name="imacron" unicode="&#x12b;" horiz-adv-x="496" d="M145 972 L350 972 L350 0 L145 0 L145 972 Z M14 1327 L481 1327 L481 1196 L14 1196 L14 1327 Z " />
<glyph glyph-name="Ibreve" unicode="&#x12c;" horiz-adv-x="550" d="M381 0 L168 0 L168 1365 L381 1365 L381 0 Z M-16 1781 L74 1781 Q140 1630 275 1630 Q409 1630 476 1781 L565 1781 Q554 1686 509 1620 Q424 1498 276 1498 Q159 1498 79 1575.5 Q-1 1653 -16 1781 Z " />
<glyph glyph-name="ibreve" unicode="&#x12d;" horiz-adv-x="495" d="M145 972 L350 972 L350 0 L145 0 L145 972 Z M-3 1389 L92 1389 Q109 1322 150.5 1284 Q192 1246 249 1246 Q305 1246 338.5 1277.5 Q372 1309 403 1389 L498 1389 Q487 1296 453 1231 Q389 1109 252 1109 Q142 1109 77 1181 Q12 1253 -3 1389 Z " />
<glyph glyph-name="Iogonek" unicode="&#x12e;" horiz-adv-x="550" d="M271 0 L168 0 L168 1365 L382 1365 L382 0 Q310 -87 290 -125 Q270 -163 270 -210 Q270 -252 296 -276 Q322 -300 367 -300 Q389 -300 434 -282 L434 -385 Q366 -418 313 -418 Q253 -418 204 -388 Q161 -361 135.5 -315 Q110 -269 110 -219 Q110 -101 271 0 Z " />
<glyph glyph-name="iogonek" unicode="&#x12f;" horiz-adv-x="495" d="M351 0 Q237 -122 237 -196 Q237 -234 260 -259 Q283 -284 318 -284 Q353 -284 395 -267 L395 -365 Q338 -393 283 -393 Q225 -393 178 -365 Q88 -312 88 -208 Q88 -147 120 -102.5 Q152 -58 237 0 L145 0 L145 972 L351 972 L351 0 Z M251 1389 Q305 1389 339.5 1353.5 Q374 1318 374 1261 Q374 1205 339 1170 Q304 1135 247 1135 Q191 1135 156 1169.5 Q121 1204 121 1259 Q121 1316 157.5 1352.5 Q194 1389 251 1389 Z " />
<glyph glyph-name="Idot" unicode="&#x130;" horiz-adv-x="550" d="M382 0 L169 0 L169 1365 L382 1365 L382 0 Z M277 1786 Q337 1786 379.5 1743 Q422 1700 422 1640 Q422 1579 379 1536 Q336 1493 275 1493 Q215 1493 172 1536 Q129 1579 129 1639 Q129 1701 172 1743.5 Q215 1786 277 1786 Z " />
<glyph glyph-name="dotlessi" unicode="&#x131;" horiz-adv-x="495" d="M145 972 L350 972 L350 0 L145 0 L145 972 Z " />
<glyph glyph-name="IJ" unicode="&#x132;" horiz-adv-x="1165" d="M381 0 L168 0 L168 1365 L381 1365 L381 0 Z M787 1365 L1000 1365 L1000 276 Q1000 109 992.5 47 Q985 -15 958 -67 Q873 -231 580 -231 Q563 -231 517 -229 L517 -51 Q622 -51 674 -37.5 Q726 -24 753 9 Q775 37 781 82.5 Q787 128 787 274 L787 1365 Z " />
<glyph glyph-name="ij" unicode="&#x133;" horiz-adv-x="1025" d="M145 972 L350 972 L350 0 L145 0 L145 972 Z M251 1389 Q305 1389 339.5 1353.5 Q374 1318 374 1261 Q374 1205 339 1170 Q304 1135 247 1135 Q191 1135 156 1169.5 Q121 1204 121 1259 Q121 1316 157.5 1352.5 Q194 1389 251 1389 Z M679 972 L884 972 L884 114 Q884 -45 871.5 -113 Q859 -181 819 -238 Q767 -311 683 -345 Q599 -379 466 -379 Q449 -379 418 -378 L418 -204 Q440 -205 449 -205 Q613 -205 656 -118 Q671 -88 674.5 -53.5 Q678 -19 679 113 L679 972 Z M784 1388 Q839 1388 873 1353 Q907 1318 907 1261 Q907 1205 872 1170 Q837 1135 780 1135 Q724 1135 689 1169.5 Q654 1204 654 1259 Q654 1316 690 1352 Q726 1388 784 1388 Z " />
<glyph glyph-name="Jcircumflex" unicode="&#x134;" horiz-adv-x="641" d="M264 1365 L477 1365 L477 276 Q477 106 469.5 45.5 Q462 -15 435 -67 Q350 -231 57 -231 Q40 -231 -6 -229 L-6 -51 Q95 -52 148 -38.5 Q201 -25 229 7 Q252 34 258 80 Q264 126 264 274 L264 1365 Z M-1 1500 L273 1779 L458 1779 L732 1500 L539 1500 L366 1669 L193 1500 L-1 1500 Z " />
<glyph glyph-name="jcircumflex" unicode="&#x135;" horiz-adv-x="537" d="M191 972 L396 972 L396 114 Q396 -45 383.5 -113 Q371 -181 331 -238 Q279 -311 194.5 -345 Q110 -379 -23 -379 Q-40 -379 -70 -378 L-70 -204 Q-47 -205 -38 -205 Q125 -205 168 -118 Q183 -89 187 -47 Q191 -5 191 113 L191 972 Z M-46 1115 L194 1415 L379 1415 L619 1115 L433 1115 L287 1299 L141 1115 L-46 1115 Z " />
<glyph glyph-name="Kcommaaccent" unicode="&#x136;" horiz-adv-x="1214" d="M909 1365 L1156 1365 L624 726 L1200 0 L923 0 L384 720 L909 1365 Z M169 1365 L380 1365 L380 0 L169 0 L169 1365 Z M634 -555 L531 -555 Q628 -447 640 -338 Q596 -336 570 -320 Q519 -289 519 -228 Q519 -178 555 -143.5 Q591 -109 643 -109 Q702 -109 738.5 -153 Q775 -197 775 -268 Q775 -394 634 -555 Z " />
<glyph glyph-name="kcommaaccent" unicode="&#x137;" horiz-adv-x="1046" d="M731 972 L974 972 L590 527 L1005 0 L733 0 L350 523 L731 972 Z M145 1373 L346 1373 L346 0 L145 0 L145 1373 Z M522 -561 L417 -561 Q515 -452 527 -342 Q482 -339 456 -324 Q405 -293 405 -231 Q405 -180 441.5 -145 Q478 -110 531 -110 Q590 -110 626.5 -154.5 Q663 -199 663 -271 Q663 -400 522 -561 Z " />
<glyph glyph-name="kgreenlandic" unicode="&#x138;" horiz-adv-x="1046" d="M731 972 L974 972 L590 527 L1005 0 L733 0 L350 523 L731 972 Z M145 972 L346 972 L346 0 L145 0 L145 972 Z " />
<glyph glyph-name="Lacute" unicode="&#x139;" horiz-adv-x="1016" d="M169 1365 L386 1365 L386 182 L975 182 L975 0 L169 0 L169 1365 Z M142 1486 L455 1794 L717 1794 L337 1486 L142 1486 Z " />
<glyph glyph-name="lacute" unicode="&#x13a;" horiz-adv-x="495" d="M145 1373 L350 1373 L350 0 L145 0 L145 1373 Z M118 1486 L377 1794 L625 1794 L281 1486 L118 1486 Z " />
<glyph glyph-name="Lcommaaccent" unicode="&#x13b;" horiz-adv-x="1016" d="M169 1365 L386 1365 L386 182 L975 182 L975 0 L169 0 L169 1365 Z M563 -555 L459 -555 Q556 -446 568 -338 Q525 -336 499 -320 Q448 -289 448 -228 Q448 -178 484 -143.5 Q520 -109 572 -109 Q631 -109 667 -152.5 Q703 -196 703 -267 Q703 -395 563 -555 Z " />
<glyph glyph-name="lcommaaccent" unicode="&#x13c;" horiz-adv-x="495" d="M135 1373 L340 1373 L340 0 L135 0 L135 1373 Z M221 -561 L116 -561 Q213 -454 226 -342 Q182 -339 156 -324 Q104 -293 104 -231 Q104 -180 140.5 -145 Q177 -110 230 -110 Q290 -110 326.5 -154.5 Q363 -199 363 -271 Q363 -400 221 -561 Z " />
<glyph glyph-name="Lcaron" unicode="&#x13d;" horiz-adv-x="1016" d="M169 1365 L386 1365 L386 182 L975 182 L975 0 L169 0 L169 1365 Z M692 947 L589 947 Q686 1053 698 1163 Q654 1166 628 1181 Q577 1212 577 1273 Q577 1323 613 1357.5 Q649 1392 701 1392 Q760 1392 796.5 1348.5 Q833 1305 833 1233 Q833 1106 692 947 Z " />
<glyph glyph-name="lcaron" unicode="&#x13e;" horiz-adv-x="674" d="M145 1373 L350 1373 L350 0 L145 0 L145 1373 Z M574 947 L471 947 Q568 1053 580 1163 Q523 1166 491 1195 Q459 1224 459 1273 Q459 1323 495 1357.5 Q531 1392 583 1392 Q642 1392 678 1348.5 Q714 1305 714 1233 Q714 1104 574 947 Z " />
<glyph glyph-name="Ldot" unicode="&#x13f;" horiz-adv-x="1016" d="M169 1365 L386 1365 L386 182 L975 182 L975 0 L169 0 L169 1365 Z M785 835 Q849 835 895 789 Q941 743 941 679 Q941 615 894.5 569.5 Q848 524 783 524 Q718 524 672 569.5 Q626 615 626 679 Q626 745 672 790 Q718 835 785 835 Z " />
<glyph glyph-name="ldot" unicode="&#x140;" horiz-adv-x="779" d="M145 1373 L350 1373 L350 0 L145 0 L145 1373 Z M642 855 Q698 855 738.5 814.5 Q779 774 779 717 Q779 661 738.5 620.5 Q698 580 640 580 Q583 580 542 620 Q501 660 501 717 Q501 775 542 815 Q583 855 642 855 Z " />
<glyph glyph-name="Lslash" unicode="&#x141;" horiz-adv-x="1016" d="M170 715 L170 1365 L387 1365 L387 835 L708 1073 L708 884 L387 646 L387 182 L975 182 L975 0 L170 0 L170 526 L33 419 L33 608 L170 715 Z " />
<glyph glyph-name="lslash" unicode="&#x142;" horiz-adv-x="495" d="M145 772 L145 1373 L350 1373 L350 874 L497 977 L497 818 L350 715 L350 0 L145 0 L145 612 L-1 507 L-1 666 L145 772 Z " />
<glyph glyph-name="Nacute" unicode="&#x143;" horiz-adv-x="1368" d="M169 1365 L396 1365 L998 322 L998 1365 L1198 1365 L1198 0 L980 0 L370 1041 L370 0 L169 0 L169 1365 Z M501 1486 L815 1794 L1076 1794 L696 1486 L501 1486 Z " />
<glyph glyph-name="nacute" unicode="&#x144;" horiz-adv-x="1080" d="M376 1106 L613 1415 L875 1415 L533 1106 L376 1106 Z M118 972 L312 972 Q331 920 332 840 Q436 994 625 994 Q739 994 821 937 Q919 868 935 734 Q941 685 941 560 L941 0 L740 0 L740 526 Q740 676 716 728 Q675 816 565 816 Q440 816 380 710 Q345 649 345 519 L345 0 L144 0 L144 632 Q144 805 140.5 850.5 Q137 896 118 972 Z " />
<glyph glyph-name="Ncommaaccent" unicode="&#x145;" horiz-adv-x="1368" d="M169 1365 L396 1365 L998 322 L998 1365 L1198 1365 L1198 0 L980 0 L370 1041 L370 0 L169 0 L169 1365 Z M660 -555 L556 -555 Q653 -448 666 -338 Q622 -336 596 -321 Q545 -289 545 -228 Q545 -178 581 -143.5 Q617 -109 669 -109 Q727 -109 763.5 -153 Q800 -197 800 -268 Q800 -396 660 -555 Z " />
<glyph glyph-name="ncommaaccent" unicode="&#x146;" horiz-adv-x="1080" d="M515 -561 L410 -561 Q507 -453 520 -342 Q475 -339 449 -324 Q398 -293 398 -231 Q398 -180 434.5 -145 Q471 -110 524 -110 Q583 -110 619.5 -154.5 Q656 -199 656 -271 Q656 -399 515 -561 Z M118 972 L312 972 Q331 920 332 840 Q436 994 625 994 Q739 994 821 937 Q919 868 935 734 Q941 685 941 560 L941 0 L740 0 L740 526 Q740 676 716 728 Q675 816 565 816 Q440 816 380 710 Q345 649 345 519 L345 0 L144 0 L144 632 Q144 805 140.5 850.5 Q137 896 118 972 Z " />
<glyph glyph-name="Ncaron" unicode="&#x147;" horiz-adv-x="1368" d="M169 1365 L396 1365 L998 322 L998 1365 L1198 1365 L1198 0 L980 0 L370 1041 L370 0 L169 0 L169 1365 Z M1050 1779 L776 1500 L591 1500 L316 1779 L510 1779 L683 1610 L855 1779 L1050 1779 Z " />
<glyph glyph-name="ncaron" unicode="&#x148;" horiz-adv-x="1080" d="M118 972 L312 972 Q331 920 332 840 Q436 994 625 994 Q739 994 821 937 Q919 868 935 734 Q941 685 941 560 L941 0 L740 0 L740 526 Q740 676 716 728 Q675 816 565 816 Q440 816 380 710 Q345 649 345 519 L345 0 L144 0 L144 632 Q144 805 140.5 850.5 Q137 896 118 972 Z M856 1415 L616 1115 L431 1115 L190 1415 L376 1415 L523 1231 L668 1415 L856 1415 Z " />
<glyph glyph-name="napostrophe" unicode="&#x149;" horiz-adv-x="1308" d="M190 910 L70 910 Q176 1028 191 1147 Q145 1149 117 1166 Q63 1199 63 1264 Q63 1316 101 1353 Q139 1390 194 1390 Q256 1390 294.5 1343.5 Q333 1297 333 1221 Q333 1080 190 910 Z M345 972 L540 972 Q559 920 560 840 Q663 994 853 994 Q967 994 1049 937 Q1147 868 1163 734 Q1169 685 1169 560 L1169 0 L968 0 L968 526 Q968 676 944 728 Q903 816 793 816 Q668 816 608 710 Q573 648 573 519 L573 0 L372 0 L372 632 Q372 806 368 855 Q364 904 345 972 Z " />
<glyph glyph-name="Eng" unicode="&#x14a;" horiz-adv-x="1337" d="M141 1374 L343 1374 Q370 1303 371 1199 Q509 1391 753 1391 Q899 1391 1007 1318 Q1138 1231 1163 1062 Q1174 986 1174 843 L1174 128 Q1174 -42 1166.5 -103 Q1159 -164 1132 -216 Q1046 -380 754 -380 Q737 -380 691 -378 L691 -200 Q795 -200 848 -186.5 Q901 -173 929 -139 Q951 -112 957 -66.5 Q963 -21 963 125 L963 795 Q963 1000 923 1079 Q859 1208 691 1208 Q512 1208 433 1055 Q389 970 389 763 L389 0 L178 0 L178 932 Q178 1153 172.5 1219.5 Q167 1286 141 1374 Z " />
<glyph glyph-name="eng" unicode="&#x14b;" horiz-adv-x="1079" d="M117 972 L311 972 Q330 921 331 840 Q435 994 624 994 Q738 994 820 937 Q918 868 934 734 Q940 685 940 560 L940 114 Q940 -45 927.5 -113 Q915 -181 875 -238 Q823 -312 738.5 -345.5 Q654 -379 521 -379 Q504 -379 474 -378 L474 -204 Q497 -205 507 -205 Q670 -205 715 -118 Q730 -89 734.5 -46.5 Q739 -4 739 113 L739 526 Q739 672 715 727 Q675 815 563 815 Q439 815 379 709 Q344 648 344 519 L344 0 L143 0 L143 632 Q143 805 139.5 850.5 Q136 896 117 972 Z " />
<glyph glyph-name="Omacron" unicode="&#x14c;" horiz-adv-x="1353" d="M677 1390 Q920 1390 1082 1218 Q1265 1025 1265 683 Q1265 341 1082 147 Q920 -25 678 -25 Q432 -25 271 147 Q88 341 88 693 Q88 797 112.5 905.5 Q137 1014 179 1090 Q266 1253 423 1332 Q539 1390 677 1390 Z M677 1208 Q509 1208 416 1076 Q310 926 310 690 Q310 440 416 289 Q508 157 677 157 Q845 157 937 289 Q1043 440 1043 683 Q1043 929 937 1076 Q842 1208 677 1208 Z M366 1706 L987 1706 L987 1574 L366 1574 L366 1706 Z " />
<glyph glyph-name="omacron" unicode="&#x14d;" horiz-adv-x="1066" d="M241 1326 L817 1326 L817 1196 L241 1196 L241 1326 Z M533 999 Q711 999 836 879 Q907 812 944 715 Q987 606 987 485 Q987 313 910 184 Q841 69 720 14 Q631 -27 534 -27 Q354 -27 230 92 Q79 236 79 492 Q79 656 156 787 Q224 902 346 958 Q435 999 533 999 Z M533 835 Q425 835 360 746 Q285 645 285 490 Q285 326 360 226 Q425 138 533 138 Q642 138 706 226 Q781 327 781 485 Q781 646 706 746 Q640 835 533 835 Z " />
<glyph glyph-name="Obreve" unicode="&#x14e;" horiz-adv-x="1353" d="M677 1390 Q920 1390 1082 1218 Q1265 1025 1265 683 Q1265 341 1082 147 Q920 -25 678 -25 Q432 -25 271 147 Q88 341 88 693 Q88 797 112.5 905.5 Q137 1014 179 1090 Q266 1253 423 1332 Q539 1390 677 1390 Z M677 1208 Q509 1208 416 1076 Q310 926 310 690 Q310 440 416 289 Q508 157 677 157 Q845 157 937 289 Q1043 440 1043 683 Q1043 929 937 1076 Q842 1208 677 1208 Z M386 1781 L475 1781 Q542 1630 677 1630 Q811 1630 878 1781 L967 1781 Q956 1686 910 1620 Q825 1498 678 1498 Q561 1498 481 1575.5 Q401 1653 386 1781 Z " />
<glyph glyph-name="obreve" unicode="&#x14f;" horiz-adv-x="1066" d="M533 999 Q711 999 836 879 Q907 812 944 715 Q987 606 987 485 Q987 313 910 184 Q841 69 720 14 Q631 -27 534 -27 Q354 -27 230 92 Q79 236 79 492 Q79 656 156 787 Q224 902 346 958 Q435 999 533 999 Z M533 835 Q425 835 360 746 Q285 645 285 490 Q285 326 360 226 Q425 138 533 138 Q642 138 706 226 Q781 327 781 485 Q781 646 706 746 Q640 835 533 835 Z M268 1396 L363 1396 Q418 1246 536 1246 Q647 1246 703 1396 L798 1396 Q788 1300 747 1231 Q674 1109 538 1109 Q428 1109 354.5 1187.5 Q281 1266 268 1396 Z " />
<glyph glyph-name="Ohungarumlaut" unicode="&#x150;" horiz-adv-x="1353" d="M434 1486 L686 1794 L921 1794 L593 1486 L434 1486 Z M750 1486 L1002 1794 L1237 1794 L908 1486 L750 1486 Z M676 1390 Q884 1390 1035 1261 Q1265 1065 1265 685 Q1265 301 1035 104 Q885 -25 669 -25 Q468 -25 318 104 Q88 301 88 683 Q88 1068 318 1261 Q471 1390 676 1390 Z M676 1208 Q511 1208 419 1084 Q310 937 310 683 Q310 430 419 281 Q462 224 527 191 Q595 157 672 157 Q842 157 934 281 Q1043 430 1043 685 Q1043 938 934 1084 Q841 1208 676 1208 Z " />
<glyph glyph-name="ohungarumlaut" unicode="&#x151;" horiz-adv-x="1066" d="M320 1106 L521 1415 L748 1415 L464 1106 L320 1106 Z M621 1106 L821 1415 L1049 1415 L765 1106 L621 1106 Z M533 999 Q711 999 836 879 Q907 812 944 715 Q987 606 987 485 Q987 313 910 184 Q841 69 720 14 Q631 -27 534 -27 Q354 -27 230 92 Q79 236 79 492 Q79 656 156 787 Q224 902 346 958 Q435 999 533 999 Z M533 835 Q425 835 360 746 Q285 645 285 490 Q285 326 360 226 Q425 138 533 138 Q642 138 706 226 Q781 327 781 485 Q781 646 706 746 Q640 835 533 835 Z " />
<glyph glyph-name="OE" unicode="&#x152;" horiz-adv-x="1940" d="M1047 1235 L1047 1365 L1852 1365 L1852 1184 L1257 1184 L1257 798 L1803 798 L1803 617 L1257 617 L1257 182 L1870 182 L1870 0 L1047 0 L1047 131 Q972 48 887 11.5 Q802 -25 683 -25 Q438 -25 279 133 Q88 324 88 681 Q88 1031 268 1224 Q423 1390 684 1390 Q908 1390 1047 1235 Z M683 1208 Q528 1208 439 1108 Q310 963 310 678 Q310 404 438 258 Q527 157 678 157 Q829 157 917 259 Q1046 409 1046 682 Q1046 958 916 1107 Q826 1208 683 1208 Z " />
<glyph glyph-name="oe" unicode="&#x153;" horiz-adv-x="1724" d="M1643 438 L969 438 Q972 314 1022 240 Q1093 136 1234 136 Q1393 136 1445 267 L1626 254 Q1595 148 1527 80 Q1419 -27 1236 -27 Q1006 -27 874 158 Q803 59 725 16 Q647 -27 538 -27 Q363 -27 238 89 Q79 237 79 487 Q79 739 234 883 Q359 999 538 999 Q767 999 876 806 Q930 882 978 919 Q1080 999 1223 999 Q1437 999 1548 833 Q1644 690 1644 491 Q1644 470 1643 438 Z M1437 583 Q1413 839 1213 839 Q1018 839 976 583 L1437 583 Z M535 835 Q430 835 364 751 Q285 650 285 484 Q285 321 363 220 Q428 137 533 137 Q634 137 699 220 Q777 321 777 485 Q777 653 699 751 Q631 835 535 835 Z " />
<glyph glyph-name="Racute" unicode="&#x154;" horiz-adv-x="1181" d="M169 1365 L463 1365 Q631 1365 714 1354 Q797 1343 867 1310 Q979 1259 1033 1147 Q1074 1062 1074 961 Q1074 691 814 586 L1150 0 L901 0 L590 550 L380 550 L380 0 L169 0 L169 1365 Z M380 732 L475 732 Q654 732 723 757 Q786 779 821 833.5 Q856 888 856 963 Q856 1098 749 1150 Q706 1172 653.5 1178 Q601 1184 464 1184 L380 1184 L380 732 Z M406 1486 L719 1794 L981 1794 L600 1486 L406 1486 Z " />
<glyph glyph-name="racute" unicode="&#x155;" horiz-adv-x="723" d="M245 1106 L483 1415 L745 1415 L402 1106 L245 1106 Z M132 972 L324 972 Q339 898 339 823 Q339 803 337 766 Q442 994 602 994 Q643 994 699 974 L699 771 Q622 815 558 815 Q438 815 382 682 Q347 600 347 444 L347 0 L145 0 L145 656 Q144 888 132 972 Z " />
<glyph glyph-name="Rcommaaccent" unicode="&#x156;" horiz-adv-x="1181" d="M169 1365 L463 1365 Q631 1365 714 1354 Q797 1343 867 1310 Q979 1259 1033 1147 Q1074 1062 1074 961 Q1074 691 814 586 L1150 0 L901 0 L590 550 L380 550 L380 0 L169 0 L169 1365 Z M380 732 L475 732 Q654 732 723 757 Q786 779 821 833.5 Q856 888 856 963 Q856 1098 749 1150 Q706 1172 653.5 1178 Q601 1184 464 1184 L380 1184 L380 732 Z M609 -555 L506 -555 Q603 -447 615 -338 Q571 -336 545 -320 Q494 -289 494 -228 Q494 -178 530 -143.5 Q566 -109 618 -109 Q677 -109 713.5 -152.5 Q750 -196 750 -267 Q750 -394 609 -555 Z " />
<glyph glyph-name="rcommaaccent" unicode="&#x157;" horiz-adv-x="723" d="M131 972 L323 972 Q338 898 338 823 Q338 803 336 766 Q442 994 602 994 Q642 994 698 974 L698 771 Q621 815 557 815 Q437 815 381 682 Q346 600 346 444 L346 0 L144 0 L144 656 Q143 888 131 972 Z M232 -560 L127 -560 Q225 -451 237 -341 Q193 -339 167 -323 Q115 -291 115 -230 Q115 -179 151.5 -144 Q188 -109 241 -109 Q301 -109 337.5 -153.5 Q374 -198 374 -270 Q374 -399 232 -560 Z " />
<glyph glyph-name="Rcaron" unicode="&#x158;" horiz-adv-x="1181" d="M169 1365 L463 1365 Q631 1365 714 1354 Q797 1343 867 1310 Q979 1259 1033 1147 Q1074 1062 1074 961 Q1074 691 814 586 L1150 0 L901 0 L590 550 L380 550 L380 0 L169 0 L169 1365 Z M380 732 L475 732 Q654 732 723 757 Q786 779 821 833.5 Q856 888 856 963 Q856 1098 749 1150 Q706 1172 653.5 1178 Q601 1184 464 1184 L380 1184 L380 732 Z M959 1779 L685 1500 L500 1500 L225 1779 L419 1779 L592 1610 L764 1779 L959 1779 Z " />
<glyph glyph-name="rcaron" unicode="&#x159;" horiz-adv-x="723" d="M131 972 L323 972 Q338 898 338 823 Q338 803 336 766 Q442 994 602 994 Q642 994 698 974 L698 771 Q621 815 557 815 Q437 815 381 682 Q346 600 346 444 L346 0 L144 0 L144 656 Q143 888 131 972 Z M747 1415 L507 1115 L322 1115 L82 1415 L268 1415 L415 1231 L560 1415 L747 1415 Z " />
<glyph glyph-name="Sacute" unicode="&#x15a;" horiz-adv-x="1140" d="M1010 987 L805 987 Q797 1078 754 1128 Q688 1206 560 1206 Q472 1206 408 1163 Q333 1111 333 1023 Q333 942 415 895 Q464 867 645 798 Q782 747 850 709 Q918 671 960 624 Q1048 525 1048 380 Q1048 175 900 64 Q782 -25 580 -25 Q283 -25 158 159 Q117 218 101 279.5 Q85 341 83 442 L288 442 Q294 309 352 243 Q426 159 580 159 Q693 159 765 218 Q832 273 832 360 Q832 458 743 517 Q691 550 515 617 Q305 698 230 763 Q122 857 122 1012 Q122 1203 272 1306 Q392 1390 563 1390 Q817 1390 940 1222 Q1003 1135 1010 987 Z M385 1486 L699 1794 L960 1794 L580 1486 L385 1486 Z " />
<glyph glyph-name="sacute" unicode="&#x15b;" horiz-adv-x="949" d="M336 1106 L574 1415 L835 1415 L493 1106 L336 1106 Z M849 689 L655 689 Q646 759 616 792 Q571 843 479 843 Q409 843 364 808.5 Q319 774 319 720 Q319 667 360 640.5 Q401 614 551 570 Q662 538 717.5 511.5 Q773 485 803 451 Q861 384 861 281 Q861 142 767 59 Q668 -27 485 -27 Q290 -27 187 60.5 Q84 148 84 313 L275 313 Q282 230 317 191 Q371 130 480 130 Q562 130 610 166.5 Q658 203 658 266 Q658 326 594 359 Q558 378 382 431 Q236 475 182 531 Q118 598 118 701 Q118 836 221 919 Q321 999 482 999 Q649 999 744.5 918.5 Q840 838 849 689 Z " />
<glyph glyph-name="Scircumflex" unicode="&#x15c;" horiz-adv-x="1140" d="M206 1500 L480 1779 L665 1779 L939 1500 L746 1500 L573 1669 L400 1500 L206 1500 Z M1012 987 L806 987 Q798 1078 756 1128 Q690 1206 563 1206 Q474 1206 411 1164 Q338 1115 338 1032 Q338 951 414 906 Q454 882 648 801 Q804 736 862 703.5 Q920 671 962 625 Q1049 531 1049 379 Q1049 175 901 63 Q783 -25 586 -25 Q293 -25 163 159 Q89 264 84 442 L289 442 Q301 310 357 247 Q436 159 588 159 Q698 159 766 210 Q832 259 832 344 Q832 436 745 496 Q694 530 519 604 Q306 694 236 758 Q127 858 127 1013 Q127 1203 278 1306 Q401 1390 569 1390 Q822 1390 942 1222 Q1004 1135 1012 987 Z " />
<glyph glyph-name="scircumflex" unicode="&#x15d;" horiz-adv-x="949" d="M154 1115 L395 1415 L579 1415 L820 1115 L634 1115 L487 1299 L342 1115 L154 1115 Z M849 689 L655 689 Q646 759 616 792 Q571 843 479 843 Q409 843 364 808.5 Q319 774 319 720 Q319 667 360 640.5 Q401 614 551 570 Q662 538 717.5 511.5 Q773 485 803 451 Q861 384 861 281 Q861 142 767 59 Q668 -27 485 -27 Q290 -27 187 60.5 Q84 148 84 313 L275 313 Q282 230 317 191 Q371 130 480 130 Q562 130 610 166.5 Q658 203 658 266 Q658 326 594 359 Q558 378 382 431 Q236 475 182 531 Q118 598 118 701 Q118 836 221 919 Q321 999 482 999 Q649 999 744.5 918.5 Q840 838 849 689 Z " />
<glyph glyph-name="Scedilla" unicode="&#x15e;" horiz-adv-x="1140" d="M596 -25 L561 -118 Q643 -132 692 -168 Q768 -223 768 -319 Q768 -412 701.5 -473.5 Q635 -535 535 -535 Q458 -535 350 -480 L350 -379 Q438 -418 485 -418 Q539 -418 572.5 -386 Q606 -354 606 -302 Q606 -247 567.5 -215 Q529 -183 463 -183 Q442 -183 406 -188 L465 -16 Q268 18 164 161 Q91 266 83 442 L288 442 Q299 314 358 248 Q437 159 584 159 Q692 159 763 212 Q832 263 832 346 Q832 434 743 495 Q694 528 518 603 Q310 693 237 759 Q128 860 128 1011 Q128 1200 278 1305 Q401 1390 568 1390 Q817 1390 938 1221 Q1001 1134 1009 987 L805 987 Q798 1075 753 1128 Q686 1206 562 1206 Q473 1206 412 1163 Q340 1111 340 1030 Q340 955 415 908 Q463 879 648 801 Q796 739 858.5 704 Q921 669 961 626 Q1049 530 1049 381 Q1049 222 950 114 Q827 -22 596 -25 Z " />
<glyph glyph-name="scedilla" unicode="&#x15f;" horiz-adv-x="949" d="M485 -27 L455 -102 Q637 -134 637 -275 Q637 -357 579 -411 Q521 -465 432 -465 Q358 -465 267 -417 L267 -328 Q352 -362 388 -362 Q437 -362 466 -334 Q495 -306 495 -260 Q495 -211 460.5 -183 Q426 -155 366 -155 Q349 -155 318 -158 L371 -17 Q187 15 116 152 Q84 218 84 313 L275 313 Q282 230 317 191 Q371 130 480 130 Q562 130 610 166.5 Q658 203 658 266 Q658 326 594 359 Q558 378 382 431 Q236 475 182 531 Q118 598 118 701 Q118 836 221 919 Q321 999 482 999 Q649 999 744.5 918.5 Q840 838 849 689 L655 689 Q646 759 616 792 Q570 843 479 843 Q409 843 364 808.5 Q319 774 319 720 Q319 667 360 640.5 Q401 614 551 570 Q662 538 717.5 511.5 Q773 485 803 451 Q861 384 861 281 Q861 190 817.5 120.5 Q774 51 694 14 Q607 -27 502 -27 Q497 -27 485 -27 Z " />
<glyph glyph-name="Scaron" unicode="&#x160;" horiz-adv-x="1140" d="M1010 987 L805 987 Q797 1078 754 1128 Q688 1206 560 1206 Q472 1206 408 1163 Q333 1111 333 1023 Q333 942 415 895 Q464 867 645 798 Q782 747 850 709 Q918 671 960 624 Q1048 525 1048 380 Q1048 175 900 64 Q782 -25 580 -25 Q283 -25 158 159 Q117 218 101 279.5 Q85 341 83 442 L288 442 Q294 309 352 243 Q426 159 580 159 Q693 159 765 218 Q832 273 832 360 Q832 458 743 517 Q691 550 515 617 Q305 698 230 763 Q122 857 122 1012 Q122 1203 272 1306 Q392 1390 563 1390 Q817 1390 940 1222 Q1003 1135 1010 987 Z M939 1779 L665 1500 L480 1500 L206 1779 L399 1779 L572 1610 L745 1779 L939 1779 Z " />
<glyph glyph-name="scaron" unicode="&#x161;" horiz-adv-x="949" d="M818 1415 L578 1115 L393 1115 L153 1415 L339 1415 L485 1231 L631 1415 L818 1415 Z M849 689 L655 689 Q646 759 616 792 Q571 843 479 843 Q409 843 364 808.5 Q319 774 319 720 Q319 667 360 640.5 Q401 614 551 570 Q662 538 717.5 511.5 Q773 485 803 451 Q861 384 861 281 Q861 142 767 59 Q668 -27 485 -27 Q290 -27 187 60.5 Q84 148 84 313 L275 313 Q282 230 317 191 Q371 130 480 130 Q562 130 610 166.5 Q658 203 658 266 Q658 326 594 359 Q558 378 382 431 Q236 475 182 531 Q118 598 118 701 Q118 836 221 919 Q321 999 482 999 Q649 999 744.5 918.5 Q840 838 849 689 Z " />
<glyph glyph-name="Tcommaaccent" unicode="&#x162;" horiz-adv-x="992" d="M33 1365 L960 1365 L960 1184 L601 1184 L601 0 L390 0 L390 1184 L33 1184 L33 1365 Z M484 -555 L380 -555 Q478 -448 489 -338 Q446 -336 420 -320 Q369 -289 369 -228 Q369 -179 405 -144 Q441 -109 493 -109 Q552 -109 588 -153 Q624 -197 624 -268 Q624 -396 484 -555 Z " />
<glyph glyph-name="tcommaaccent" unicode="&#x163;" horiz-adv-x="691" d="M403 972 L617 972 L614 813 L400 813 L393 383 Q391 255 397 225 Q412 157 496 157 Q563 157 639 189 L636 19 Q536 -20 440 -20 Q281 -20 218 86 Q185 140 185 262 Q185 291 188 383 L200 813 L51 813 L54 972 L206 972 L213 1252 L408 1252 L403 972 Z M369 -561 L264 -561 Q361 -453 374 -342 Q330 -339 303 -324 Q252 -293 252 -231 Q252 -180 288.5 -145 Q325 -110 378 -110 Q438 -110 474.5 -154.5 Q511 -199 511 -271 Q511 -399 369 -561 Z " />
<glyph glyph-name="Tcaron" unicode="&#x164;" horiz-adv-x="992" d="M33 1365 L960 1365 L960 1184 L601 1184 L601 0 L390 0 L390 1184 L33 1184 L33 1365 Z M863 1779 L589 1500 L404 1500 L130 1779 L323 1779 L496 1610 L669 1779 L863 1779 Z " />
<glyph glyph-name="tcaron" unicode="&#x165;" horiz-adv-x="734" d="M403 972 L617 972 L614 813 L400 813 L393 383 Q391 255 397 225 Q412 157 496 157 Q563 157 639 189 L636 19 Q536 -20 440 -20 Q282 -20 219 84 Q185 139 185 263 Q185 291 188 383 L200 813 L51 813 L54 972 L206 972 L213 1252 L408 1252 L403 972 Z M634 1081 L529 1081 Q627 1190 639 1300 Q595 1302 569 1318 Q517 1350 517 1411 Q517 1462 553.5 1497 Q590 1532 643 1532 Q703 1532 739.5 1487.5 Q776 1443 776 1371 Q776 1242 634 1081 Z " />
<glyph glyph-name="Tbar" unicode="&#x166;" horiz-adv-x="992" d="M601 898 L870 898 L870 727 L601 727 L601 0 L390 0 L390 727 L122 727 L122 898 L390 898 L390 1184 L33 1184 L33 1365 L960 1365 L960 1184 L601 1184 L601 898 Z " />
<glyph glyph-name="tbar" unicode="&#x167;" horiz-adv-x="691" d="M403 972 L616 972 L615 813 L400 813 L398 675 L604 675 L604 538 L395 538 L393 382 Q391 255 397 225 Q412 157 496 157 Q562 157 639 189 L636 19 Q536 -20 440 -20 Q282 -20 217 86 Q185 140 185 262 Q185 294 188 383 L192 538 L51 538 L52 675 L197 675 L200 813 L53 813 L53 972 L206 972 L213 1252 L408 1252 L403 972 Z " />
<glyph glyph-name="Utilde" unicode="&#x168;" horiz-adv-x="1334" d="M153 1365 L364 1365 L364 572 Q364 451 370 399 Q376 347 396 304 Q431 229 509 192 Q579 159 667 159 Q772 159 845.5 203.5 Q919 248 947 330 Q969 394 969 572 L969 1365 L1180 1365 L1180 569 Q1180 417 1171.5 352.5 Q1163 288 1136 229 Q1079 102 941 33 Q826 -25 667 -25 Q437 -25 295 98 Q186 192 163 346 Q153 413 153 569 L153 1365 Z M423 1510 L319 1541 Q376 1749 517 1749 Q568 1749 668 1707 Q773 1663 807 1663 Q871 1663 911 1763 L1006 1733 Q993 1660 961 1610 Q902 1516 810 1516 Q765 1516 650 1563 Q554 1603 518 1603 Q451 1603 423 1510 Z " />
<glyph glyph-name="utilde" unicode="&#x169;" horiz-adv-x="1082" d="M318 1137 L223 1161 Q274 1376 401 1376 Q451 1376 538 1334 Q631 1290 663 1290 Q721 1290 757 1390 L847 1366 Q832 1275 793 1217 Q743 1142 671 1142 Q622 1142 526 1186 Q432 1230 403 1230 Q343 1230 318 1137 Z M139 972 L340 972 L340 399 Q340 270 374 223 Q421 156 523 156 Q644 156 701 255 Q736 316 736 438 L736 972 L937 972 L937 298 Q937 136 940 97.5 Q943 59 961 0 L768 0 Q752 48 748 120 Q657 -22 481 -22 Q385 -22 308 17 Q231 56 188 126 Q139 205 139 392 L139 972 Z " />
<glyph glyph-name="Umacron" unicode="&#x16a;" horiz-adv-x="1334" d="M153 1365 L364 1365 L364 572 Q364 451 370 399 Q376 347 396 304 Q431 229 509 192 Q579 159 667 159 Q772 159 845.5 203.5 Q919 248 947 330 Q969 394 969 572 L969 1365 L1180 1365 L1180 569 Q1180 417 1171.5 352.5 Q1163 288 1136 229 Q1079 102 941 33 Q826 -25 667 -25 Q437 -25 295 98 Q186 192 163 346 Q153 413 153 569 L153 1365 Z M356 1706 L977 1706 L977 1574 L356 1574 L356 1706 Z " />
<glyph glyph-name="umacron" unicode="&#x16b;" horiz-adv-x="1082" d="M139 972 L340 972 L340 399 Q340 270 374 223 Q421 156 523 156 Q644 156 701 255 Q736 316 736 438 L736 972 L937 972 L937 298 Q937 136 940 97.5 Q943 59 961 0 L768 0 Q752 48 748 120 Q657 -22 481 -22 Q385 -22 308 17 Q231 56 188 126 Q139 205 139 392 L139 972 Z M248 1327 L824 1327 L824 1196 L248 1196 L248 1327 Z " />
<glyph glyph-name="Ubreve" unicode="&#x16c;" horiz-adv-x="1334" d="M153 1365 L364 1365 L364 572 Q364 451 370 399 Q376 347 396 304 Q431 229 509 192 Q579 159 667 159 Q772 159 845.5 203.5 Q919 248 947 330 Q969 394 969 572 L969 1365 L1180 1365 L1180 569 Q1180 417 1171.5 352.5 Q1163 288 1136 229 Q1079 102 941 33 Q826 -25 667 -25 Q437 -25 295 98 Q186 192 163 346 Q153 413 153 569 L153 1365 Z M376 1781 L466 1781 Q532 1630 667 1630 Q801 1630 868 1781 L957 1781 Q946 1686 901 1620 Q815 1498 668 1498 Q551 1498 471 1575.5 Q391 1653 376 1781 Z " />
<glyph glyph-name="ubreve" unicode="&#x16d;" horiz-adv-x="1082" d="M271 1396 L366 1396 Q422 1246 539 1246 Q650 1246 706 1396 L801 1396 Q791 1300 750 1231 Q678 1109 542 1109 Q432 1109 358 1187.5 Q284 1266 271 1396 Z M139 972 L340 972 L340 399 Q340 270 374 223 Q421 156 523 156 Q644 156 701 255 Q736 316 736 438 L736 972 L937 972 L937 298 Q937 136 940 97.5 Q943 59 961 0 L768 0 Q752 48 748 120 Q657 -22 481 -22 Q385 -22 308 17 Q231 56 188 126 Q139 205 139 392 L139 972 Z " />
<glyph glyph-name="Uring" unicode="&#x16e;" horiz-adv-x="1334" d="M669 1853 Q748 1853 805 1796 Q863 1738 863 1656 Q863 1575 805 1518 Q748 1460 667 1460 Q585 1460 528 1518 Q470 1576 470 1656 Q470 1738 528 1795.5 Q586 1853 669 1853 Z M668 1757 Q625 1757 595.5 1727.5 Q566 1698 566 1656 Q566 1615 595.5 1585.5 Q625 1556 667 1556 Q708 1556 737.5 1585.5 Q767 1615 767 1656 Q767 1698 737.5 1727.5 Q708 1757 668 1757 Z M153 1365 L364 1365 L364 572 Q364 451 370 399 Q376 347 396 304 Q431 229 509 192 Q579 159 667 159 Q772 159 845.5 203.5 Q919 248 947 330 Q969 394 969 572 L969 1365 L1180 1365 L1180 569 Q1180 417 1171.5 352.5 Q1163 288 1136 229 Q1079 102 941 33 Q826 -25 667 -25 Q437 -25 295 98 Q186 192 163 346 Q153 413 153 569 L153 1365 Z " />
<glyph glyph-name="uring" unicode="&#x16f;" horiz-adv-x="1082" d="M539 1476 Q618 1476 675.5 1418 Q733 1360 733 1279 Q733 1198 675 1141 Q618 1083 537 1083 Q455 1083 398 1141 Q340 1198 340 1279 Q340 1361 398 1418.5 Q456 1476 539 1476 Z M538 1380 Q495 1380 465.5 1351 Q436 1322 436 1279 Q436 1238 465.5 1208.5 Q495 1179 537 1179 Q578 1179 607.5 1208.5 Q637 1238 637 1279 Q637 1321 608 1350.5 Q579 1380 538 1380 Z M139 972 L340 972 L340 399 Q340 270 374 223 Q421 156 523 156 Q644 156 701 255 Q736 316 736 438 L736 972 L937 972 L937 298 Q937 136 940 97.5 Q943 59 961 0 L768 0 Q752 48 748 120 Q657 -22 481 -22 Q385 -22 308 17 Q231 56 188 126 Q139 205 139 392 L139 972 Z " />
<glyph glyph-name="Uhungarumlaut" unicode="&#x170;" horiz-adv-x="1334" d="M414 1486 L667 1794 L901 1794 L573 1486 L414 1486 Z M730 1486 L982 1794 L1217 1794 L889 1486 L730 1486 Z M153 1365 L364 1365 L364 572 Q364 450 370 398.5 Q376 347 396 304 Q431 229 509 192 Q578 159 667 159 Q773 159 846 203.5 Q919 248 947 330 Q969 394 969 572 L969 1365 L1180 1365 L1180 569 Q1180 415 1172 352 Q1164 289 1136 229 Q1078 101 941 33 Q825 -25 667 -25 Q437 -25 295 98 Q185 193 163 346 Q153 414 153 569 L153 1365 Z " />
<glyph glyph-name="uhungarumlaut" unicode="&#x171;" horiz-adv-x="1082" d="M332 1106 L532 1415 L760 1415 L476 1106 L332 1106 Z M633 1106 L833 1415 L1061 1415 L777 1106 L633 1106 Z M139 972 L340 972 L340 399 Q340 270 374 223 Q421 156 523 156 Q644 156 701 255 Q736 316 736 438 L736 972 L937 972 L937 298 Q937 136 940 97.5 Q943 59 961 0 L768 0 Q752 48 748 120 Q657 -22 481 -22 Q385 -22 308 17 Q231 56 188 126 Q139 205 139 392 L139 972 Z " />
<glyph glyph-name="Uogonek" unicode="&#x172;" horiz-adv-x="1334" d="M1023 -282 L1023 -385 Q949 -417 883 -417 Q771 -417 709 -349 Q658 -294 658 -220 Q658 -151 696.5 -104.5 Q735 -58 836 -5 Q744 -25 668 -25 Q437 -25 295 98 Q186 192 163 346 Q153 413 153 569 L153 1365 L364 1365 L364 572 Q364 451 370 399 Q376 347 396 304 Q431 229 509 192 Q579 159 667 159 Q772 159 845.5 203.5 Q919 248 947 330 Q969 394 969 572 L969 1365 L1180 1365 L1180 569 Q1180 438 1175 382.5 Q1170 327 1154 275 Q1135 214 1108 175.5 Q1081 137 1001 56 Q900 -45 860 -102.5 Q820 -160 820 -201 Q820 -248 849.5 -274 Q879 -300 930 -300 Q971 -300 1023 -282 Z " />
<glyph glyph-name="uogonek" unicode="&#x173;" horiz-adv-x="1082" d="M961 0 Q938 -19 926 -28 Q852 -88 824 -125 Q796 -162 796 -198 Q796 -237 824 -260.5 Q852 -284 899 -284 Q944 -284 989 -266 L989 -365 Q930 -392 860 -392 Q753 -392 695 -329 Q648 -278 648 -207 Q648 -84 817 0 L768 0 Q752 48 748 120 Q657 -22 481 -22 Q385 -22 308 17 Q231 56 188 126 Q139 205 139 392 L139 972 L340 972 L340 399 Q340 270 374 223 Q421 156 523 156 Q644 156 701 255 Q736 316 736 438 L736 972 L937 972 L937 298 Q937 137 940.5 96 Q944 55 961 0 Z " />
<glyph glyph-name="Wcircumflex" unicode="&#x174;" horiz-adv-x="1691" d="M27 1365 L226 1365 L488 254 L756 1365 L938 1365 L1206 254 L1471 1365 L1665 1365 L1326 -4 L1090 -4 L844 968 L601 -4 L366 -4 L27 1365 Z M481 1500 L755 1779 L941 1779 L1215 1500 L1022 1500 L848 1669 L676 1500 L481 1500 Z " />
<glyph glyph-name="wcircumflex" unicode="&#x175;" horiz-adv-x="1450" d="M29 972 L233 972 L427 246 L641 972 L807 972 L1020 246 L1216 972 L1419 972 L1132 -8 L923 -8 L721 658 L521 -8 L312 -8 L29 972 Z M391 1115 L632 1415 L817 1415 L1057 1115 L871 1115 L724 1299 L579 1115 L391 1115 Z " />
<glyph glyph-name="Ycircumflex" unicode="&#x176;" horiz-adv-x="1103" d="M185 1500 L459 1779 L644 1779 L919 1500 L725 1500 L552 1669 L380 1500 L185 1500 Z M11 1365 L250 1365 L555 777 L857 1365 L1092 1365 L657 554 L658 0 L446 0 L447 554 L11 1365 Z " />
<glyph glyph-name="ycircumflex" unicode="&#x177;" horiz-adv-x="964" d="M33 972 L247 972 L485 199 L732 972 L942 972 L617 47 Q567 -96 552.5 -131.5 Q538 -167 508 -219 Q398 -410 121 -410 Q101 -410 56 -408 L56 -233 Q81 -233 92 -233 Q216 -233 272 -192 Q328 -151 373 -28 L33 972 Z M155 1115 L395 1415 L580 1415 L821 1115 L635 1115 L488 1299 L343 1115 L155 1115 Z " />
<glyph glyph-name="Ydieresis" unicode="&#x178;" horiz-adv-x="1103" d="M366 1774 Q421 1774 460 1734.5 Q499 1695 499 1639 Q499 1584 459.5 1544.5 Q420 1505 365 1505 Q309 1505 269.5 1544.5 Q230 1584 230 1639 Q230 1696 269.5 1735 Q309 1774 366 1774 Z M740 1774 Q795 1774 834 1734.5 Q873 1695 873 1639 Q873 1584 833.5 1544.5 Q794 1505 739 1505 Q683 1505 643.5 1544.5 Q604 1584 604 1639 Q604 1696 643.5 1735 Q683 1774 740 1774 Z M11 1365 L250 1365 L555 777 L857 1365 L1092 1365 L657 554 L658 0 L446 0 L447 554 L11 1365 Z " />
<glyph glyph-name="Zacute" unicode="&#x179;" horiz-adv-x="1018" d="M107 1365 L967 1365 L967 1217 L303 182 L950 182 L950 0 L54 0 L54 165 L711 1186 L107 1186 L107 1365 Z M358 1486 L672 1794 L933 1794 L552 1486 L358 1486 Z " />
<glyph glyph-name="zacute" unicode="&#x17a;" horiz-adv-x="844" d="M93 972 L793 972 L793 822 L283 166 L792 166 L792 0 L46 0 L46 155 L549 806 L93 806 L93 972 Z M293 1106 L531 1415 L792 1415 L450 1106 L293 1106 Z " />
<glyph glyph-name="Zdotaccent" unicode="&#x17b;" horiz-adv-x="1018" d="M107 1365 L967 1365 L967 1217 L303 182 L950 182 L950 0 L54 0 L54 165 L711 1186 L107 1186 L107 1365 Z M534 1786 Q594 1786 636.5 1743 Q679 1700 679 1639 Q679 1579 636 1536 Q593 1493 532 1493 Q472 1493 429 1536 Q386 1579 386 1639 Q386 1701 429 1743.5 Q472 1786 534 1786 Z " />
<glyph glyph-name="zdotaccent" unicode="&#x17c;" horiz-adv-x="843" d="M93 972 L793 972 L793 822 L283 166 L792 166 L792 0 L46 0 L46 155 L549 806 L93 806 L93 972 Z M439 1391 Q490 1391 526 1354.5 Q562 1318 562 1267 Q562 1215 525.5 1178.5 Q489 1142 438 1142 Q386 1142 349.5 1178.5 Q313 1215 313 1266 Q313 1319 349.5 1355 Q386 1391 439 1391 Z " />
<glyph glyph-name="Zcaron" unicode="&#x17d;" horiz-adv-x="1018" d="M107 1365 L967 1365 L967 1217 L303 182 L950 182 L950 0 L54 0 L54 165 L711 1186 L107 1186 L107 1365 Z M900 1779 L626 1500 L441 1500 L166 1779 L360 1779 L533 1610 L705 1779 L900 1779 Z " />
<glyph glyph-name="zcaron" unicode="&#x17e;" horiz-adv-x="843" d="M93 972 L793 972 L793 822 L283 166 L792 166 L792 0 L46 0 L46 155 L549 806 L93 806 L93 972 Z M768 1415 L528 1115 L343 1115 L103 1415 L289 1415 L436 1231 L581 1415 L768 1415 Z " />
<glyph glyph-name="longs" unicode="&#x17f;" horiz-adv-x="630" d="M166 0 L166 1033 Q166 1213 213 1288 Q285 1401 447 1401 Q535 1401 638 1362 L638 1192 Q541 1226 484 1226 Q403 1226 381 1153 Q371 1118 371 1016 L371 0 L166 0 Z " />
<glyph glyph-name="uni018F" unicode="&#x18f;" horiz-adv-x="1353" d="M89 733 L1038 732 Q1039 747 1039 750 Q1039 829 1011 918.5 Q983 1008 937 1076 Q895 1139 826.5 1173.5 Q758 1208 676 1208 Q574 1208 491.5 1151 Q409 1094 371 996 L175 1083 Q209 1155 270 1218 Q439 1390 676 1390 Q920 1390 1082 1218 Q1265 1024 1265 683 Q1265 341 1082 147 Q921 -25 677 -25 Q433 -25 270 147 Q170 253 137 371 Q97 514 89 733 Z M312 583 Q336 401 416 289 Q509 157 676 157 Q783 157 865 216 Q995 308 1032 583 L312 583 Z " />
<glyph glyph-name="florin" unicode="&#x192;" horiz-adv-x="1133" d="M762 972 L983 972 L983 821 L736 821 L633 239 Q602 60 585.5 -6 Q569 -72 543 -122 Q462 -278 291 -278 Q165 -278 25 -196 L55 -31 Q185 -106 271 -106 Q340 -106 368.5 -46 Q397 14 437 239 L539 821 L344 821 L344 972 L566 972 L587 1090 Q621 1284 673 1359 Q751 1472 901 1472 Q1002 1472 1108 1415 L1080 1255 Q970 1303 919 1303 Q861 1303 832 1252.5 Q803 1202 777 1054 L762 972 Z " />
<glyph glyph-name="Ohorn" unicode="&#x1a0;" horiz-adv-x="1353" d="M1138 1149 Q1183 1224 1190 1289 Q1146 1291 1121 1307 Q1070 1338 1070 1399 Q1070 1449 1106 1483.5 Q1142 1518 1194 1518 Q1252 1518 1288.5 1474 Q1325 1430 1325 1360 Q1325 1232 1185 1072 L1183 1072 Q1265 906 1265 679 Q1265 341 1082 147 Q921 -25 676 -25 Q432 -25 271 147 Q88 341 88 683 Q88 1024 271 1218 Q432 1390 677 1390 Q918 1390 1082 1218 Q1113 1186 1138 1149 Z M677 1208 Q509 1208 416 1076 Q310 926 310 690 Q310 440 416 289 Q508 157 677 157 Q845 157 937 289 Q1043 440 1043 683 Q1043 929 937 1076 Q842 1208 677 1208 Z " />
<glyph glyph-name="ohorn" unicode="&#x1a1;" horiz-adv-x="1066" d="M911 785 Q945 852 950 905 Q906 908 880 924 Q828 955 828 1017 Q828 1068 864.5 1103 Q901 1138 954 1138 Q1013 1138 1050 1093.5 Q1087 1049 1087 977 Q1087 850 952 694 Q987 592 987 484 Q987 314 910 184 Q841 69 720 14 Q631 -27 533 -27 Q354 -27 230 92 Q159 160 121 255 Q79 364 79 485 Q79 657 156 786 Q225 903 346 958 Q435 999 533 999 Q651 999 750 943 Q849 887 911 785 Z M533 835 Q425 835 360 746 Q285 645 285 490 Q285 326 360 226 Q425 138 533 138 Q642 138 706 226 Q781 327 781 485 Q781 646 706 746 Q640 835 533 835 Z " />
<glyph glyph-name="Uhorn" unicode="&#x1af;" horiz-adv-x="1334" d="M153 1365 L364 1365 L364 572 Q364 451 370 399 Q376 347 396 304 Q431 229 509 192 Q579 159 667 159 Q772 159 845.5 203.5 Q919 248 947 330 Q969 394 969 572 L969 1365 L1180 1365 L1180 569 Q1180 417 1171.5 352.5 Q1163 288 1136 229 Q1079 102 941 33 Q826 -25 667 -25 Q437 -25 295 98 Q186 192 163 346 Q153 413 153 569 L153 1365 Z M1371 1063 L1267 1063 Q1365 1170 1377 1280 Q1333 1282 1307 1298 Q1256 1329 1256 1390 Q1256 1440 1292 1474.5 Q1328 1509 1380 1509 Q1439 1509 1475 1465 Q1511 1421 1511 1350 Q1511 1222 1371 1063 Z " />
<glyph glyph-name="uhorn" unicode="&#x1b0;" horiz-adv-x="1082" d="M139 972 L340 972 L340 399 Q340 270 374 223 Q421 156 523 156 Q644 156 701 255 Q736 316 736 438 L736 972 L937 972 L937 298 Q937 136 940 97.5 Q943 59 961 0 L768 0 Q752 48 748 120 Q657 -22 481 -22 Q385 -22 308 17 Q231 56 188 126 Q139 205 139 392 L139 972 Z M1124 673 L1019 673 Q1117 782 1129 892 Q1084 894 1058 910 Q1007 942 1007 1003 Q1007 1054 1043.5 1089 Q1080 1124 1132 1124 Q1192 1124 1228.5 1079.5 Q1265 1035 1265 963 Q1265 833 1124 673 Z " />
<glyph glyph-name="uni01CD" unicode="&#x1cd;" horiz-adv-x="1198" d="M495 1369 L700 1369 L1167 0 L948 0 L847 320 L350 320 L247 0 L30 0 L495 1369 Z M791 502 L598 1116 L405 502 L791 502 Z M966 1779 L691 1500 L506 1500 L232 1779 L425 1779 L598 1610 L771 1779 L966 1779 Z " />
<glyph glyph-name="uni01CE" unicode="&#x1ce;" horiz-adv-x="1014" d="M838 1415 L598 1115 L413 1115 L173 1415 L359 1415 L505 1231 L651 1415 L838 1415 Z M318 698 L124 698 Q140 834 222 904 Q328 994 520 994 Q643 994 727 954.5 Q811 915 842 843 Q873 771 873 613 L873 234 Q873 71 903 0 L717 0 Q702 56 700 120 Q620 -22 422 -22 Q282 -22 194 41 Q90 115 90 255 Q90 463 313 547 Q419 587 678 632 L678 659 Q678 744 650 779 Q608 831 508 831 Q343 831 318 698 Z M678 493 Q466 461 391 419 Q296 366 296 278 Q296 215 342.5 176 Q389 137 462 137 Q594 137 649 239 Q678 292 678 418 L678 493 Z " />
<glyph glyph-name="uni01D2" unicode="&#x1d2;" horiz-adv-x="1066" d="M533 999 Q711 999 836 879 Q907 812 944 715 Q987 606 987 485 Q987 313 910 184 Q841 69 720 14 Q631 -27 534 -27 Q354 -27 230 92 Q79 236 79 492 Q79 656 156 787 Q224 902 346 958 Q435 999 533 999 Z M533 835 Q425 835 360 746 Q285 645 285 490 Q285 326 360 226 Q425 138 533 138 Q642 138 706 226 Q781 327 781 485 Q781 646 706 746 Q640 835 533 835 Z M866 1415 L626 1115 L441 1115 L200 1415 L386 1415 L533 1231 L678 1415 L866 1415 Z " />
<glyph glyph-name="uni01D3" unicode="&#x1d3;" horiz-adv-x="1334" d="M1034 1779 L759 1500 L574 1500 L300 1779 L493 1779 L667 1610 L839 1779 L1034 1779 Z M153 1365 L364 1365 L364 572 Q364 451 370 399 Q376 347 396 304 Q431 229 509 192 Q579 159 667 159 Q772 159 845.5 203.5 Q919 248 947 330 Q969 394 969 572 L969 1365 L1180 1365 L1180 569 Q1180 417 1171.5 352.5 Q1163 288 1136 229 Q1079 102 941 33 Q826 -25 667 -25 Q437 -25 295 98 Q186 192 163 346 Q153 413 153 569 L153 1365 Z " />
<glyph glyph-name="uni01D4" unicode="&#x1d4;" horiz-adv-x="1082" d="M139 972 L340 972 L340 399 Q340 270 374 223 Q421 156 523 156 Q644 156 701 255 Q736 316 736 438 L736 972 L937 972 L937 298 Q937 136 940 97.5 Q943 59 961 0 L768 0 Q752 48 748 120 Q657 -22 481 -22 Q385 -22 308 17 Q231 56 188 126 Q139 205 139 392 L139 972 Z M869 1415 L629 1115 L444 1115 L204 1415 L390 1415 L536 1231 L682 1415 L869 1415 Z " />
<glyph glyph-name="uni01DD" unicode="&#x1dd;" horiz-adv-x="1026" d="M80 530 L744 530 Q738 657 689 732 Q623 834 487 834 Q343 834 281 706 L100 719 Q131 823 199 891 Q308 999 491 999 Q663 999 780 903 Q947 766 947 497 Q947 314 870 180 Q802 64 686 11 Q601 -27 500 -27 Q294 -27 178 131 Q79 266 79 486 Q79 501 80 530 Z M284 380 Q314 134 504 134 Q689 134 738 380 L284 380 Z " />
<glyph glyph-name="Gcaron" unicode="&#x1e6;" horiz-adv-x="1295" d="M1044 1779 L770 1500 L585 1500 L310 1779 L504 1779 L677 1610 L849 1779 L1044 1779 Z M721 692 L1177 692 L1177 127 Q961 -25 700 -25 Q443 -25 281 135 Q88 328 88 685 Q88 1038 282 1232 Q441 1390 677 1390 Q796 1390 896.5 1347.5 Q997 1305 1061 1226 Q1142 1128 1158 955 L971 955 Q925 1206 679 1206 Q520 1206 431 1096 Q310 949 310 685 Q310 423 428 277 Q523 159 699 159 Q856 159 997 248 L997 526 L721 526 L721 692 Z " />
<glyph glyph-name="gcaron" unicode="&#x1e7;" horiz-adv-x="1040" d="M865 1415 L625 1115 L440 1115 L200 1415 L386 1415 L532 1231 L678 1415 L865 1415 Z M999 972 L999 825 L800 827 Q866 752 866 630 Q866 547 829.5 483.5 Q793 420 727 389 Q676 365 631.5 355 Q587 345 440 323 Q396 317 367 297 Q338 277 338 253 Q338 224 370.5 214 Q403 204 543 190 Q769 168 847 127 Q907 95 941 35 Q975 -25 975 -100 Q975 -258 837 -342 Q718 -414 513 -414 Q285 -414 158 -328 Q49 -253 49 -131 Q49 32 249 102 Q142 145 142 218 Q142 267 181 302 Q220 337 315 374 Q240 408 201 454 Q136 532 136 652 Q136 809 245 902 Q348 990 519 990 Q597 990 689 964 L999 972 Z M508 835 Q421 835 368.5 785.5 Q316 736 316 654 Q316 580 363 535 Q414 484 502 484 Q587 484 638.5 530.5 Q690 577 690 654 Q690 734 639 784.5 Q588 835 508 835 Z M490 28 Q377 28 307 -3 Q225 -40 225 -115 Q225 -188 311 -225 Q395 -261 515 -261 Q638 -261 709.5 -222.5 Q781 -184 781 -118 Q781 -48 705.5 -10 Q630 28 490 28 Z " />
<glyph glyph-name="uni01F4" unicode="&#x1f4;" horiz-adv-x="1295" d="M492 1486 L805 1794 L1067 1794 L686 1486 L492 1486 Z M721 692 L1177 692 L1177 127 Q961 -25 700 -25 Q443 -25 281 135 Q88 328 88 685 Q88 1038 282 1232 Q441 1390 677 1390 Q796 1390 896.5 1347.5 Q997 1305 1061 1226 Q1142 1128 1158 955 L971 955 Q925 1206 679 1206 Q520 1206 431 1096 Q310 949 310 685 Q310 423 428 277 Q523 159 699 159 Q856 159 997 248 L997 526 L721 526 L721 692 Z " />
<glyph glyph-name="Aringacute" unicode="&#x1fa;" horiz-adv-x="1198" d="M495 1369 L700 1369 L1167 0 L948 0 L847 320 L350 320 L247 0 L30 0 L495 1369 Z M791 502 L598 1116 L405 502 L791 502 Z M598 1780 Q677 1780 735 1723 Q792 1665 792 1583 Q792 1502 735 1445 Q677 1387 596 1387 Q514 1387 457 1445 Q399 1502 399 1583 Q399 1666 457 1723 Q515 1780 598 1780 Z M597 1684 Q554 1684 524.5 1654.5 Q495 1625 495 1583 Q495 1542 524.5 1512.5 Q554 1483 596 1483 Q637 1483 666.5 1512.5 Q696 1542 696 1583 Q696 1625 666.5 1654.5 Q637 1684 597 1684 Z M278 1751 L592 2060 L853 2060 L473 1751 L278 1751 Z " />
<glyph glyph-name="AEacute" unicode="&#x1fc;" horiz-adv-x="1815" d="M832 1365 L1733 1365 L1733 1184 L1149 1184 L1149 796 L1682 796 L1682 614 L1149 614 L1149 182 L1744 182 L1744 0 L934 0 L934 320 L446 320 L263 0 L32 0 L832 1365 Z M934 502 L934 1175 L552 502 L934 502 Z M942 1486 L1256 1794 L1517 1794 L1137 1486 L942 1486 Z " />
<glyph glyph-name="aeacute" unicode="&#x1fd;" horiz-adv-x="1629" d="M1550 443 L873 443 Q874 315 927 240 Q1000 136 1143 136 Q1288 136 1350 266 L1531 253 Q1509 157 1437 83 Q1331 -27 1147 -27 Q1019 -27 921 26.5 Q823 80 767 180 Q724 87 661 42 Q567 -27 425 -27 Q290 -27 198 35 Q90 108 90 247 Q90 409 240.5 499.5 Q391 590 668 594 L668 647 Q668 749 636 787 Q596 836 507 836 Q353 836 315 681 L122 681 Q135 809 212 889 Q318 999 517 999 Q632 999 703 965 Q774 931 822 853 Q874 914 921 944 Q1009 999 1127 999 Q1321 999 1438 855 Q1550 718 1550 472 Q1550 462 1550 443 Z M1334 592 Q1303 839 1118 839 Q1025 839 964.5 776 Q904 713 882 592 L1334 592 Z M668 445 Q652 445 645 445 Q550 445 464 426 Q296 388 296 261 Q296 203 339 167.5 Q382 132 453 132 Q559 132 613.5 201 Q668 270 668 405 L668 445 Z M695 1106 L933 1415 L1194 1415 L852 1106 L695 1106 Z " />
<glyph glyph-name="Oslashacute" unicode="&#x1fe;" horiz-adv-x="1353" d="M1030 1268 L1114 1379 L1278 1379 L1121 1173 Q1265 984 1265 679 Q1265 421 1147 234 Q1051 81 889 16 Q789 -25 679 -25 Q477 -25 320 101 L235 -14 L75 -14 L228 196 Q169 283 142 353 Q88 496 88 683 Q88 1085 335 1275 Q483 1390 675 1390 Q871 1390 1030 1268 Z M906 1114 Q809 1207 676 1207 Q521 1207 432 1094 Q310 940 310 674 Q310 531 366 383 L906 1114 Z M442 257 Q547 157 681 157 Q832 157 921 270 Q1043 425 1043 688 Q1043 841 984 997 L442 257 Z M555 1486 L869 1794 L1130 1794 L750 1486 L555 1486 Z " />
<glyph glyph-name="oslashacute" unicode="&#x1ff;" horiz-adv-x="1067" d="M165 165 Q160 175 157 180 Q116 257 103 303 Q79 387 79 482 Q79 659 160 790 Q230 905 352 960 Q438 998 533 998 Q618 998 681.5 974.5 Q745 951 825 890 L902 972 L1045 972 L901 810 Q907 793 937 736 Q987 643 987 485 Q987 311 906 180 Q835 65 714 11 Q628 -27 532 -27 Q360 -27 241 82 L169 0 L21 0 L165 165 Z M310 318 L695 756 Q672 791 626.5 812.5 Q581 834 529 834 Q429 834 364 748 Q285 645 285 480 Q285 399 310 318 Z M752 658 L367 211 Q444 137 533 137 Q636 137 702 222 Q781 325 781 491 Q781 568 752 658 Z M408 1106 L646 1415 L908 1415 L565 1106 L408 1106 Z " />
<glyph glyph-name="Scommaaccent" unicode="&#x218;" horiz-adv-x="1140" d="M1009 987 L805 987 Q798 1074 753 1128 Q687 1206 562 1206 Q473 1206 412 1163 Q340 1111 340 1030 Q340 955 416 908 Q463 879 648 801 Q796 739 858.5 704 Q921 669 960 626 Q1048 530 1048 381 Q1048 180 896 66 Q775 -25 580 -25 Q348 -25 221 94.5 Q94 214 83 442 L288 442 Q299 314 358 248 Q437 159 584 159 Q692 159 763 212 Q831 263 831 346 Q831 434 742 495 Q694 528 518 603 Q309 693 237 759 Q128 861 128 1011 Q128 1201 279 1305 Q401 1390 569 1390 Q817 1390 938 1221 Q1001 1134 1009 987 Z M553 -555 L449 -555 Q547 -448 559 -338 Q515 -336 489 -320 Q438 -289 438 -228 Q438 -179 474 -144 Q510 -109 562 -109 Q621 -109 657 -153 Q693 -197 693 -268 Q693 -396 553 -555 Z " />
<glyph glyph-name="scommaaccent" unicode="&#x219;" horiz-adv-x="949" d="M462 -561 L357 -561 Q455 -453 467 -342 Q423 -339 397 -324 Q345 -293 345 -230 Q345 -180 381.5 -145 Q418 -110 471 -110 Q530 -110 567 -154.5 Q604 -199 604 -270 Q604 -399 462 -561 Z M849 689 L655 689 Q646 759 616 792 Q571 843 479 843 Q409 843 364 808.5 Q319 774 319 720 Q319 667 360 640.5 Q401 614 551 570 Q662 538 717.5 511.5 Q773 485 803 451 Q861 384 861 281 Q861 142 767 59 Q668 -27 485 -27 Q290 -27 187 60.5 Q84 148 84 313 L275 313 Q282 230 317 191 Q371 130 480 130 Q562 130 610 166.5 Q658 203 658 266 Q658 326 594 359 Q558 378 382 431 Q236 475 182 531 Q118 598 118 701 Q118 836 221 919 Q321 999 482 999 Q649 999 744.5 918.5 Q840 838 849 689 Z " />
<glyph glyph-name="uni021A" unicode="&#x21a;" horiz-adv-x="992" d="M33 1365 L960 1365 L960 1184 L601 1184 L601 0 L390 0 L390 1184 L33 1184 L33 1365 Z M484 -555 L380 -555 Q478 -448 489 -338 Q446 -336 420 -320 Q369 -289 369 -228 Q369 -179 405 -144 Q441 -109 493 -109 Q552 -109 588 -153 Q624 -197 624 -268 Q624 -396 484 -555 Z " />
<glyph glyph-name="uni021B" unicode="&#x21b;" horiz-adv-x="691" d="M403 972 L617 972 L614 813 L400 813 L393 383 Q391 255 397 225 Q412 157 496 157 Q563 157 639 189 L636 19 Q536 -20 440 -20 Q281 -20 218 86 Q185 140 185 262 Q185 291 188 383 L200 813 L51 813 L54 972 L206 972 L213 1252 L408 1252 L403 972 Z M369 -561 L264 -561 Q361 -453 374 -342 Q330 -339 303 -324 Q252 -293 252 -231 Q252 -180 288.5 -145 Q325 -110 378 -110 Q438 -110 474.5 -154.5 Q511 -199 511 -271 Q511 -399 369 -561 Z " />
<glyph glyph-name="uni0226" unicode="&#x226;" horiz-adv-x="1198" d="M495 1369 L700 1369 L1167 0 L948 0 L847 320 L350 320 L247 0 L30 0 L495 1369 Z M791 502 L598 1116 L405 502 L791 502 Z M600 1786 Q660 1786 702.5 1743 Q745 1700 745 1640 Q745 1579 702 1536 Q659 1493 598 1493 Q538 1493 495 1536 Q452 1579 452 1639 Q452 1701 495 1743.5 Q538 1786 600 1786 Z " />
<glyph glyph-name="uni0227" unicode="&#x227;" horiz-adv-x="1014" d="M511 1391 Q562 1391 598 1354.5 Q634 1318 634 1267 Q634 1215 597.5 1178.5 Q561 1142 510 1142 Q458 1142 421.5 1178.5 Q385 1215 385 1266 Q385 1319 421.5 1355 Q458 1391 511 1391 Z M318 698 L124 698 Q140 834 222 904 Q328 994 520 994 Q643 994 727 954.5 Q811 915 842 843 Q873 771 873 613 L873 234 Q873 71 903 0 L717 0 Q702 56 700 120 Q620 -22 422 -22 Q282 -22 194 41 Q90 115 90 255 Q90 463 313 547 Q419 587 678 632 L678 659 Q678 744 650 779 Q608 831 508 831 Q343 831 318 698 Z M678 493 Q466 461 391 419 Q296 366 296 278 Q296 215 342.5 176 Q389 137 462 137 Q594 137 649 239 Q678 292 678 418 L678 493 Z " />
<glyph glyph-name="uni0237" unicode="&#x237;" horiz-adv-x="537" d="M191 972 L396 972 L396 114 Q396 -45 383.5 -113 Q371 -181 331 -238 Q279 -311 194.5 -345 Q110 -379 -23 -379 Q-40 -379 -70 -378 L-70 -204 Q-47 -205 -38 -205 Q125 -205 168 -118 Q183 -89 187 -47 Q191 -5 191 113 L191 972 Z " />
<glyph glyph-name="uni0259" unicode="&#x259;" horiz-adv-x="1026" d="M80 530 L744 530 Q738 657 689 732 Q623 834 487 834 Q343 834 281 706 L100 719 Q131 823 199 891 Q308 999 491 999 Q663 999 780 903 Q947 766 947 497 Q947 314 870 180 Q802 64 686 11 Q601 -27 500 -27 Q294 -27 178 131 Q79 266 79 486 Q79 501 80 530 Z M284 380 Q314 134 504 134 Q689 134 738 380 L284 380 Z " />
<glyph glyph-name="afii57929" unicode="&#x2bc;" horiz-adv-x="428" d="M190 910 L70 910 Q176 1028 191 1147 Q145 1149 117 1166 Q63 1199 63 1264 Q63 1316 101 1353 Q139 1390 194 1390 Q256 1390 294.5 1343.5 Q333 1297 333 1221 Q333 1080 190 910 Z " />
<glyph glyph-name="circumflex" unicode="&#x2c6;" horiz-adv-x="1024" d="M179 1115 L419 1415 L604 1415 L844 1115 L659 1115 L512 1299 L366 1115 L179 1115 Z " />
<glyph glyph-name="caron" unicode="&#x2c7;" horiz-adv-x="1024" d="M844 1415 L604 1115 L419 1115 L179 1415 L365 1415 L512 1231 L657 1415 L844 1415 Z " />
<glyph glyph-name="uni02C9" unicode="&#x2c9;" horiz-adv-x="1024" d="M224 1327 L800 1327 L800 1196 L224 1196 L224 1327 Z " />
<glyph glyph-name="breve" unicode="&#x2d8;" horiz-adv-x="1024" d="M247 1396 L342 1396 Q398 1246 516 1246 Q626 1246 683 1396 L778 1396 Q768 1300 727 1231 Q653 1109 518 1109 Q408 1109 334 1187.5 Q260 1266 247 1396 Z " />
<glyph glyph-name="dotaccent" unicode="&#x2d9;" horiz-adv-x="1024" d="M514 1391 Q565 1391 601 1354.5 Q637 1318 637 1267 Q637 1215 600.5 1178.5 Q564 1142 513 1142 Q461 1142 424.5 1178.5 Q388 1215 388 1266 Q388 1319 424.5 1355 Q461 1391 514 1391 Z " />
<glyph glyph-name="ring" unicode="&#x2da;" horiz-adv-x="1024" d="M515 1476 Q593 1476 651 1418 Q709 1361 709 1279 Q709 1198 651 1140 Q594 1083 512 1083 Q431 1083 374 1140 Q316 1198 316 1279 Q316 1361 374 1418.5 Q432 1476 515 1476 Z M514 1380 Q471 1380 441.5 1351 Q412 1322 412 1279 Q412 1238 441.5 1208.5 Q471 1179 512 1179 Q554 1179 583.5 1208.5 Q613 1238 613 1280 Q613 1321 584 1350.5 Q555 1380 514 1380 Z " />
<glyph glyph-name="ogonek" unicode="&#x2db;" horiz-adv-x="1024" d="M642 0 L813 0 Q614 -107 614 -198 Q614 -237 641.5 -260.5 Q669 -284 717 -284 Q762 -284 807 -266 L807 -365 Q747 -392 677 -392 Q571 -392 512 -329 Q466 -278 466 -207 Q466 -77 642 0 Z " />
<glyph glyph-name="tilde" unicode="&#x2dc;" horiz-adv-x="1024" d="M295 1137 L200 1161 Q250 1376 378 1376 Q429 1376 516 1334 Q608 1290 640 1290 Q699 1290 735 1390 L824 1366 Q809 1275 770 1217 Q720 1142 648 1142 Q600 1142 504 1186 Q409 1230 381 1230 Q321 1230 295 1137 Z " />
<glyph glyph-name="hungarumlaut" unicode="&#x2dd;" horiz-adv-x="1024" d="M294 1106 L494 1415 L722 1415 L438 1106 L294 1106 Z M595 1106 L795 1415 L1023 1415 L739 1106 L595 1106 Z " />
<glyph glyph-name="uni037E" unicode="&#x37e;" horiz-adv-x="502" d="M237 971 Q293 971 333.5 930.5 Q374 890 374 834 Q374 777 333.5 736.5 Q293 696 235 696 Q177 696 136.5 736 Q96 776 96 833 Q96 891 137 931 Q178 971 237 971 Z M187 -387 L57 -387 Q212 -196 231 3 Q180 5 151 23 Q92 59 92 130 Q92 187 134 227 Q176 267 236 267 Q304 267 345 215 Q386 163 386 76 Q386 -27 340 -133.5 Q294 -240 187 -387 Z " />
<glyph glyph-name="tonos" unicode="&#x384;" horiz-adv-x="339" d="M248 1103 L90 1103 L68 1447 L271 1447 L248 1103 Z " />
<glyph glyph-name="dieresistonos" unicode="&#x385;" horiz-adv-x="915" d="M194 1391 Q245 1391 281 1354.5 Q317 1318 317 1267 Q317 1215 280.5 1178.5 Q244 1142 193 1142 Q141 1142 104.5 1178.5 Q68 1215 68 1266 Q68 1319 104.5 1355 Q141 1391 194 1391 Z M724 1391 Q775 1391 811 1354.5 Q847 1318 847 1267 Q847 1215 810.5 1178.5 Q774 1142 723 1142 Q671 1142 634.5 1178.5 Q598 1215 598 1266 Q598 1319 634.5 1355 Q671 1391 724 1391 Z M536 1103 L379 1103 L356 1447 L559 1447 L536 1103 Z " />
<glyph glyph-name="Alphatonos" unicode="&#x386;" horiz-adv-x="1249" d="M547 1369 L752 1369 L1219 0 L1000 0 L899 320 L402 320 L299 0 L82 0 L547 1369 Z M843 502 L650 1116 L457 502 L843 502 Z M292 1103 L134 1103 L112 1447 L315 1447 L292 1103 Z " />
<glyph glyph-name="uni0387" unicode="&#x387;" horiz-adv-x="518" d="M261 650 Q317 650 357.5 609.5 Q398 569 398 512 Q398 455 357.5 415 Q317 375 259 375 Q202 375 161 415 Q120 455 120 512 Q120 570 161 610 Q202 650 261 650 Z " />
<glyph glyph-name="Epsilontonos" unicode="&#x388;" horiz-adv-x="1173" d="M487 798 L1036 798 L1036 616 L487 616 L487 182 L1102 182 L1102 0 L276 0 L276 1365 L1085 1365 L1085 1184 L487 1184 L487 798 Z M180 1103 L22 1103 L0 1447 L203 1447 L180 1103 Z " />
<glyph glyph-name="Etatonos" unicode="&#x389;" horiz-adv-x="1457" d="M487 800 L1077 800 L1077 1365 L1288 1365 L1288 0 L1077 0 L1077 625 L487 625 L487 0 L276 0 L276 1365 L487 1365 L487 800 Z M180 1103 L22 1103 L0 1447 L203 1447 L180 1103 Z " />
<glyph glyph-name="Iotatonos" unicode="&#x38a;" horiz-adv-x="657" d="M489 0 L276 0 L276 1365 L489 1365 L489 0 Z M180 1103 L22 1103 L0 1447 L203 1447 L180 1103 Z " />
<glyph glyph-name="Omicrontonos" unicode="&#x38c;" horiz-adv-x="1431" d="M755 1390 Q998 1390 1161 1218 Q1343 1025 1343 683 Q1343 341 1161 147 Q999 -25 756 -25 Q511 -25 349 147 Q167 341 167 693 Q167 797 191.5 905.5 Q216 1014 258 1090 Q345 1253 502 1332 Q618 1390 755 1390 Z M755 1208 Q587 1208 495 1076 Q389 926 389 690 Q389 440 495 289 Q587 157 756 157 Q923 157 1016 289 Q1121 439 1121 683 Q1121 930 1016 1076 Q921 1208 755 1208 Z M180 1103 L22 1103 L0 1447 L203 1447 L180 1103 Z " />
<glyph glyph-name="Upsilontonos" unicode="&#x38e;" horiz-adv-x="1318" d="M225 1365 L464 1365 L769 777 L1071 1365 L1306 1365 L871 554 L872 0 L660 0 L661 554 L225 1365 Z M166 1103 L8 1103 L-14 1447 L189 1447 L166 1103 Z " />
<glyph glyph-name="Omegatonos" unicode="&#x38f;" horiz-adv-x="1490" d="M180 1103 L22 1103 L0 1447 L203 1447 L180 1103 Z M856 310 Q1007 330 1089.5 441.5 Q1172 553 1172 738 Q1172 1030 998 1146 Q906 1208 779 1208 Q632 1208 534 1128 Q385 1006 385 739 Q385 491 529 379 Q601 323 701 310 L701 0 L163 0 L163 182 L531 182 L531 201 Q367 230 263 378 Q163 522 163 759 Q163 1048 330 1218 Q500 1390 779 1390 Q1057 1390 1227 1218 Q1394 1048 1394 759 Q1394 497 1271 348 Q1170 226 1026 201 L1026 182 L1394 182 L1394 0 L856 0 L856 310 Z " />
<glyph glyph-name="iotadieresistonos" unicode="&#x390;" horiz-adv-x="495" d="M145 972 L350 972 L350 0 L145 0 L145 972 Z M-16 1391 Q35 1391 71 1354.5 Q107 1318 107 1267 Q107 1215 70.5 1178.5 Q34 1142 -17 1142 Q-69 1142 -105.5 1178.5 Q-142 1215 -142 1266 Q-142 1319 -105.5 1355 Q-69 1391 -16 1391 Z M514 1391 Q565 1391 601 1354.5 Q637 1318 637 1267 Q637 1215 600.5 1178.5 Q564 1142 513 1142 Q461 1142 424.5 1178.5 Q388 1215 388 1266 Q388 1319 424.5 1355 Q461 1391 514 1391 Z M326 1103 L169 1103 L146 1447 L349 1447 L326 1103 Z " />
<glyph glyph-name="Alpha" unicode="&#x391;" horiz-adv-x="1198" d="M495 1369 L700 1369 L1167 0 L948 0 L847 320 L350 320 L247 0 L30 0 L495 1369 Z M791 502 L598 1116 L405 502 L791 502 Z " />
<glyph glyph-name="Beta" unicode="&#x392;" horiz-adv-x="1168" d="M169 1365 L481 1365 Q708 1365 806 1331 Q913 1295 969 1205 Q1018 1127 1018 1024 Q1018 909 964 838 Q910 767 793 731 Q1091 661 1091 388 Q1091 214 975 108 Q901 41 801.5 20.5 Q702 0 452 0 L169 0 L169 1365 Z M377 798 L497 798 Q649 798 716 831 Q809 876 809 999 Q809 1125 708 1166 Q647 1191 486 1191 L377 1191 L377 798 Z M377 174 L504 174 Q701 174 769 204 Q818 225 845.5 277.5 Q873 330 873 400 Q873 556 746 603 Q676 628 507 628 L377 628 L377 174 Z " />
<glyph glyph-name="Gamma" unicode="&#x393;" horiz-adv-x="1016" d="M169 0 L169 1365 L975 1365 L975 1183 L386 1183 L386 0 L169 0 Z " />
<glyph glyph-name="uni0394" unicode="&#x394;" horiz-adv-x="1219" d="M30 0 L501 1369 L720 1369 L1188 0 L30 0 Z M904 182 L606 1123 L309 182 L904 182 Z " />
<glyph glyph-name="Epsilon" unicode="&#x395;" horiz-adv-x="1066" d="M380 798 L928 798 L928 616 L380 616 L380 182 L995 182 L995 0 L169 0 L169 1365 L977 1365 L977 1184 L380 1184 L380 798 Z " />
<glyph glyph-name="Zeta" unicode="&#x396;" horiz-adv-x="1018" d="M107 1365 L967 1365 L967 1217 L303 182 L950 182 L950 0 L54 0 L54 165 L711 1186 L107 1186 L107 1365 Z " />
<glyph glyph-name="Eta" unicode="&#x397;" horiz-adv-x="1350" d="M380 800 L969 800 L969 1365 L1180 1365 L1180 0 L969 0 L969 625 L380 625 L380 0 L169 0 L169 1365 L380 1365 L380 800 Z " />
<glyph glyph-name="Theta" unicode="&#x398;" horiz-adv-x="1353" d="M677 1390 Q920 1390 1082 1218 Q1265 1025 1265 683 Q1265 341 1082 147 Q920 -25 678 -25 Q432 -25 271 147 Q88 341 88 693 Q88 797 112.5 905.5 Q137 1014 179 1090 Q266 1253 423 1332 Q539 1390 677 1390 Z M677 1208 Q509 1208 416 1076 Q310 926 310 690 Q310 440 416 289 Q508 157 677 157 Q845 157 937 289 Q1043 440 1043 683 Q1043 929 937 1076 Q842 1208 677 1208 Z M453 770 L899 770 L899 595 L453 595 L453 770 Z " />
<glyph glyph-name="Iota" unicode="&#x399;" horiz-adv-x="550" d="M381 0 L168 0 L168 1365 L381 1365 L381 0 Z " />
<glyph glyph-name="Kappa" unicode="&#x39a;" horiz-adv-x="1214" d="M909 1365 L1156 1365 L624 726 L1199 0 L923 0 L383 720 L909 1365 Z M169 1365 L380 1365 L380 0 L169 0 L169 1365 Z " />
<glyph glyph-name="Lambda" unicode="&#x39b;" horiz-adv-x="1202" d="M1181 0 L955 0 L599 1123 L245 0 L23 0 L494 1369 L713 1369 L1181 0 Z " />
<glyph glyph-name="Mu" unicode="&#x39c;" horiz-adv-x="1619" d="M169 1365 L472 1365 L809 228 L1148 1365 L1449 1365 L1449 0 L1255 0 L1255 1133 L916 0 L700 0 L363 1133 L363 0 L169 0 L169 1365 Z " />
<glyph glyph-name="Nu" unicode="&#x39d;" horiz-adv-x="1368" d="M169 1365 L396 1365 L998 322 L998 1365 L1198 1365 L1198 0 L980 0 L370 1041 L370 0 L169 0 L169 1365 Z " />
<glyph glyph-name="Xi" unicode="&#x39e;" horiz-adv-x="1096" d="M138 616 L138 798 L959 798 L959 616 L138 616 Z M71 0 L71 182 L1026 182 L1026 0 L71 0 Z M89 1184 L89 1365 L1008 1365 L1008 1184 L89 1184 Z " />
<glyph glyph-name="Omicron" unicode="&#x39f;" horiz-adv-x="1353" d="M677 1390 Q920 1390 1082 1218 Q1265 1025 1265 683 Q1265 341 1082 147 Q920 -25 678 -25 Q432 -25 271 147 Q88 341 88 693 Q88 797 112.5 905.5 Q137 1014 179 1090 Q266 1253 423 1332 Q539 1390 677 1390 Z M677 1208 Q509 1208 416 1076 Q310 926 310 690 Q310 440 416 289 Q508 157 677 157 Q845 157 937 289 Q1043 440 1043 683 Q1043 929 937 1076 Q842 1208 677 1208 Z " />
<glyph glyph-name="Pi" unicode="&#x3a0;" horiz-adv-x="1350" d="M380 1190 L380 0 L169 0 L169 1365 L1180 1365 L1180 0 L969 0 L969 1190 L380 1190 Z " />
<glyph glyph-name="Rho" unicode="&#x3a1;" horiz-adv-x="1119" d="M169 1365 L444 1365 Q711 1365 827 1326 Q954 1284 1020 1168 Q1075 1070 1075 944 Q1075 760 964 650 Q894 581 792.5 556.5 Q691 532 471 532 L380 532 L380 0 L169 0 L169 1365 Z M380 714 L470 714 Q645 714 716 734 Q782 753 819.5 809 Q857 865 857 944 Q857 1100 743 1151 Q668 1184 468 1184 L380 1184 L380 714 Z " />
<glyph glyph-name="Sigma" unicode="&#x3a3;" horiz-adv-x="1000" d="M55 0 L55 165 L506 679 L103 1217 L103 1365 L973 1365 L973 1186 L383 1184 L756 679 L329 182 L973 182 L973 0 L55 0 Z " />
<glyph glyph-name="Tau" unicode="&#x3a4;" horiz-adv-x="992" d="M33 1365 L960 1365 L960 1184 L601 1184 L601 0 L390 0 L390 1184 L33 1184 L33 1365 Z " />
<glyph glyph-name="Upsilon" unicode="&#x3a5;" horiz-adv-x="1103" d="M11 1365 L250 1365 L555 777 L857 1365 L1092 1365 L657 554 L658 0 L446 0 L447 554 L11 1365 Z " />
<glyph glyph-name="Phi" unicode="&#x3a6;" horiz-adv-x="1470" d="M834 286 Q896 286 953 304 Q1199 380 1199 665 Q1199 859 1090 958 Q1046 997 975.5 1021.5 Q905 1046 834 1046 L834 286 Z M634 286 L634 1046 Q573 1046 515 1028 Q375 986 318 878 Q269 786 269 665 Q269 380 515 304 Q573 286 634 286 Z M834 1231 Q936 1230 1029 1201 Q1216 1141 1315 996 Q1407 861 1407 672 Q1407 399 1225 248 Q1064 114 834 112 L834 0 L634 0 L634 112 Q532 113 439 142 Q252 202 153 347 Q61 482 61 672 Q61 943 243 1095 Q404 1229 634 1231 L634 1365 L834 1365 L834 1231 Z " />
<glyph glyph-name="Chi" unicode="&#x3a7;" horiz-adv-x="1157" d="M60 1365 L302 1365 L581 895 L863 1365 L1105 1365 L703 712 L1128 0 L887 0 L581 519 L270 0 L30 0 L457 712 L60 1365 Z " />
<glyph glyph-name="Psi" unicode="&#x3a8;" horiz-adv-x="1379" d="M798 265 L798 0 L585 0 L585 265 Q475 276 380 317 Q169 411 125 606 Q109 676 109 853 L109 1365 L320 1365 L320 852 Q320 708 334.5 645.5 Q349 583 392 536 Q454 471 585 447 L585 1365 L798 1365 L798 447 Q924 470 987 536 Q1031 583 1045 645 Q1059 707 1059 852 L1059 1365 L1270 1365 L1270 853 Q1270 658 1248 582 Q1192 385 959 301 Q887 276 798 265 Z " />
<glyph glyph-name="uni03A9" unicode="&#x3a9;" horiz-adv-x="1423" d="M789 310 Q940 329 1023 441 Q1106 553 1106 738 Q1106 1030 931 1147 Q839 1208 712 1208 Q565 1208 467 1128 Q318 1006 318 739 Q318 491 462 379 Q534 323 634 310 L634 0 L96 0 L96 182 L464 182 L464 201 Q300 230 196 378 Q96 522 96 759 Q96 1048 263 1218 Q433 1390 711 1390 Q991 1390 1160 1218 Q1328 1048 1328 759 Q1328 496 1204 348 Q1103 226 960 201 L960 182 L1328 182 L1328 0 L789 0 L789 310 Z " />
<glyph glyph-name="Iotadieresis" unicode="&#x3aa;" horiz-adv-x="550" d="M382 0 L169 0 L169 1365 L382 1365 L382 0 Z M114 1767 Q166 1767 203.5 1729 Q241 1691 241 1638 Q241 1585 203 1547 Q165 1509 112 1509 Q59 1509 21 1547 Q-17 1585 -17 1638 Q-17 1692 21 1729.5 Q59 1767 114 1767 Z M441 1767 Q493 1767 530.5 1729 Q568 1691 568 1638 Q568 1585 530 1547 Q492 1509 439 1509 Q386 1509 348 1547 Q310 1585 310 1638 Q310 1692 348 1729.5 Q386 1767 441 1767 Z " />
<glyph glyph-name="Upsilondieresis" unicode="&#x3ab;" horiz-adv-x="1103" d="M366 1774 Q421 1774 460 1734.5 Q499 1695 499 1639 Q499 1584 459.5 1544.5 Q420 1505 365 1505 Q309 1505 269.5 1544.5 Q230 1584 230 1639 Q230 1696 269.5 1735 Q309 1774 366 1774 Z M740 1774 Q795 1774 834 1734.5 Q873 1695 873 1639 Q873 1584 833.5 1544.5 Q794 1505 739 1505 Q683 1505 643.5 1544.5 Q604 1584 604 1639 Q604 1696 643.5 1735 Q683 1774 740 1774 Z M11 1365 L250 1365 L555 777 L857 1365 L1092 1365 L657 554 L658 0 L446 0 L447 554 L11 1365 Z " />
<glyph glyph-name="alphatonos" unicode="&#x3ac;" horiz-adv-x="1168" d="M840 736 L882 973 L1086 973 L951 494 L1106 1 L907 1 L848 257 Q736 -25 496 -25 Q327 -25 216 92 Q79 238 79 485 Q79 734 220 883 Q330 999 495 999 Q619 999 700 937 Q781 875 840 736 Z M767 483 Q719 643 670 722 Q601 835 500 835 Q404 835 349 746 Q285 644 285 485 Q285 327 350 226 Q406 139 499 139 Q587 139 648 217 Q709 295 767 483 Z M662 1103 L505 1103 L482 1447 L685 1447 L662 1103 Z " />
<glyph glyph-name="epsilontonos" unicode="&#x3ad;" horiz-adv-x="945" d="M551 1103 L393 1103 L371 1447 L574 1447 L551 1103 Z M657 667 Q626 835 474 835 Q399 835 354 798.5 Q309 762 309 701 Q309 626 370 591 Q427 558 492 561 L500 561 L547 563 L547 404 L508 404 Q281 405 281 267 Q281 209 327.5 175 Q374 141 454 141 Q547 141 597 183 Q647 225 666 320 L862 306 Q847 180 766 88 Q663 -27 458 -27 Q282 -27 178 52 Q75 131 75 256 Q75 440 298 486 Q103 545 103 719 Q103 847 203 923 Q303 999 471 999 Q682 999 786 857 Q839 784 854 681 L657 667 Z " />
<glyph glyph-name="etatonos" unicode="&#x3ae;" horiz-adv-x="1080" d="M118 972 L312 972 Q331 920 332 840 Q436 994 625 994 Q739 994 821 937 Q919 868 935 734 Q941 685 941 560 L941 -403 L740 -403 L740 526 Q740 676 716 728 Q675 816 565 816 Q440 816 380 710 Q345 649 345 519 L345 0 L144 0 L144 632 Q144 805 140.5 850.5 Q137 896 118 972 Z M619 1103 L461 1103 L439 1447 L642 1447 L619 1103 Z " />
<glyph glyph-name="iotatonos" unicode="&#x3af;" horiz-adv-x="495" d="M145 972 L350 972 L350 0 L145 0 L145 972 Z M327 1103 L169 1103 L146 1447 L349 1447 L327 1103 Z " />
<glyph glyph-name="upsilondieresistonos" unicode="&#x3b0;" horiz-adv-x="1076" d="M937 972 L937 392 Q937 269 915 198.5 Q893 128 838 73 Q736 -28 538 -28 Q340 -28 239 73 Q183 128 161 198.5 Q139 269 139 392 L139 972 L340 972 L340 378 Q340 266 376 216 Q431 138 538 138 Q657 138 709 230 Q736 277 736 378 L736 972 L937 972 Z M274 1391 Q325 1391 361 1354.5 Q397 1318 397 1267 Q397 1215 360.5 1178.5 Q324 1142 273 1142 Q221 1142 184.5 1178.5 Q148 1215 148 1266 Q148 1319 184.5 1355 Q221 1391 274 1391 Z M804 1391 Q855 1391 891 1354.5 Q927 1318 927 1267 Q927 1215 890.5 1178.5 Q854 1142 803 1142 Q751 1142 714.5 1178.5 Q678 1215 678 1266 Q678 1319 714.5 1355 Q751 1391 804 1391 Z M617 1103 L459 1103 L437 1447 L639 1447 L617 1103 Z " />
<glyph glyph-name="alpha" unicode="&#x3b1;" horiz-adv-x="1168" d="M840 736 L882 973 L1086 973 L951 494 L1106 1 L907 1 L848 257 Q736 -25 496 -25 Q327 -25 216 92 Q79 238 79 485 Q79 734 220 883 Q330 999 495 999 Q619 999 700 937 Q781 875 840 736 Z M767 483 Q719 643 670 722 Q601 835 500 835 Q404 835 349 746 Q285 644 285 485 Q285 327 350 226 Q406 139 499 139 Q587 139 648 217 Q709 295 767 483 Z " />
<glyph glyph-name="beta" unicode="&#x3b2;" horiz-adv-x="1084" d="M145 -403 L144 914 L144 936 Q144 1049 160 1115 Q176 1181 218 1240 Q331 1399 571 1399 Q749 1399 852.5 1303 Q956 1207 956 1043 Q956 918 895.5 840.5 Q835 763 714 734 Q819 712 877 672 Q1010 580 1010 386 Q1010 187 886 71 Q787 -22 633 -22 Q535 -22 469.5 10 Q404 42 346 119 L346 -403 L145 -403 Z M516 808 L545 808 Q638 808 694 867 Q750 926 750 1025 Q750 1134 689 1188 Q635 1236 550 1236 Q432 1236 376 1142 Q346 1092 346 961 L346 444 Q346 318 399 245 Q469 149 592 149 Q705 149 758 232 Q802 300 802 401 Q802 524 735.5 587 Q669 650 541 649 L516 649 L516 808 Z " />
<glyph glyph-name="gamma" unicode="&#x3b3;" horiz-adv-x="948" d="M373 -5 L16 972 L227 972 L474 220 L721 972 L931 972 L574 -5 L574 -403 L373 -403 L373 -5 Z " />
<glyph glyph-name="delta" unicode="&#x3b4;" horiz-adv-x="1066" d="M465 976 L188 1223 L188 1373 L887 1373 L887 1207 L477 1207 L731 983 Q852 875 908 786 Q987 659 987 488 Q987 236 836 92 Q712 -27 533 -27 Q355 -27 230 92 Q79 236 79 487 Q79 731 228 872 Q326 966 465 976 Z M533 836 Q425 836 360 747 Q285 646 285 490 Q285 327 360 226 Q425 138 533 138 Q642 138 706 226 Q781 328 781 486 Q781 647 706 747 Q641 836 533 836 Z " />
<glyph glyph-name="epsilon" unicode="&#x3b5;" horiz-adv-x="945" d="M657 667 Q626 835 474 835 Q399 835 354 798.5 Q309 762 309 701 Q309 626 370 591 Q427 558 492 561 L500 561 L547 563 L547 404 L508 404 Q281 405 281 267 Q281 209 327.5 175 Q374 141 454 141 Q547 141 597 183 Q647 225 666 320 L862 306 Q847 180 766 88 Q663 -27 458 -27 Q282 -27 178 52 Q75 131 75 256 Q75 440 298 486 Q103 545 103 719 Q103 847 203 923 Q303 999 471 999 Q682 999 786 857 Q839 784 854 681 L657 667 Z " />
<glyph glyph-name="zeta" unicode="&#x3b6;" horiz-adv-x="832" d="M570 1207 L149 1207 L149 1373 L845 1373 L845 1227 Q662 1094 568 1009 Q474 924 406 829 Q282 657 282 478 Q282 284 378 193 Q416 156 455.5 141.5 Q495 127 606 108 Q721 88 762 63 Q821 28 821 -51 Q821 -104 795 -183 Q776 -239 731 -324 Q702 -378 689 -405 L500 -405 Q526 -350 565 -285 Q625 -185 625 -128 Q625 -80 608.5 -66.5 Q592 -53 518 -41 Q358 -15 275 42 Q183 105 131 216.5 Q79 328 79 463 Q79 752 317 994 Q424 1103 570 1207 Z " />
<glyph glyph-name="eta" unicode="&#x3b7;" horiz-adv-x="1080" d="M118 972 L312 972 Q331 920 332 840 Q436 994 625 994 Q739 994 821 937 Q919 868 935 734 Q941 685 941 560 L941 -403 L740 -403 L740 526 Q740 676 716 728 Q675 816 565 816 Q440 816 380 710 Q345 649 345 519 L345 0 L144 0 L144 632 Q144 805 140.5 850.5 Q137 896 118 972 Z " />
<glyph glyph-name="theta" unicode="&#x3b8;" horiz-adv-x="1066" d="M287 761 L779 761 Q769 915 735 1022 Q666 1237 530 1237 Q431 1237 365.5 1109 Q300 981 287 761 Z M778 602 L288 602 Q296 457 331 352 Q400 139 533 139 Q633 139 699 263.5 Q765 388 778 602 Z M533 1401 Q650 1401 754 1320 Q868 1230 929 1054 Q987 889 987 684 Q987 344 836 136 Q781 59 700 14.5 Q619 -30 534 -30 Q416 -30 312 50 Q199 139 137 315 Q79 479 79 694 Q79 853 118.5 995 Q158 1137 230 1234 Q290 1317 379 1363 Q452 1401 533 1401 Z " />
<glyph glyph-name="iota" unicode="&#x3b9;" horiz-adv-x="495" d="M145 972 L350 972 L350 0 L145 0 L145 972 Z " />
<glyph glyph-name="kappa" unicode="&#x3ba;" horiz-adv-x="1046" d="M731 972 L974 972 L590 527 L1005 0 L733 0 L350 523 L731 972 Z M145 972 L346 972 L346 0 L145 0 L145 972 Z " />
<glyph glyph-name="lambda" unicode="&#x3bb;" horiz-adv-x="948" d="M378 1017 L256 1373 L461 1373 L589 1000 L930 0 L716 0 L477 773 L230 0 L20 0 L378 1017 Z " />
<glyph glyph-name="uni03BC" unicode="&#x3bc;" horiz-adv-x="1082" d="M340 3 L340 -403 L139 -403 L139 972 L340 972 L340 399 Q340 270 374 223 Q421 156 523 156 Q643 156 701 255 Q736 316 736 438 L736 972 L937 972 L937 298 Q937 136 940 97.5 Q943 59 961 0 L768 0 Q752 48 748 120 Q657 -22 481 -22 Q408 -22 340 3 Z " />
<glyph glyph-name="nu" unicode="&#x3bd;" horiz-adv-x="961" d="M21 972 L233 972 L479 220 L726 972 L936 972 L591 -8 L366 -8 L21 972 Z " />
<glyph glyph-name="xi" unicode="&#x3be;" horiz-adv-x="832" d="M788 1227 Q648 1228 583 1215 Q495 1198 444 1152 Q390 1103 390 1029 Q390 953 461 911 Q532 869 666 867 L666 701 Q532 700 487 693.5 Q442 687 400 661 Q287 593 287 418 Q287 246 403 169 Q441 143 473 133 Q505 123 606 106 Q721 86 762 62 Q821 26 821 -53 Q821 -163 720 -355 L531 -355 Q624 -173 624 -104 Q624 -74 604 -62 Q584 -50 519 -41 Q369 -19 273 43 Q85 164 85 424 Q85 573 159.5 673 Q234 773 367 802 Q190 867 190 1011 Q190 1134 308 1207 L92 1207 L92 1373 L788 1373 L788 1227 Z " />
<glyph glyph-name="omicron" unicode="&#x3bf;" horiz-adv-x="1066" d="M533 999 Q711 999 836 879 Q907 812 944 715 Q987 606 987 485 Q987 313 910 184 Q841 69 720 14 Q631 -27 534 -27 Q354 -27 230 92 Q79 236 79 492 Q79 656 156 787 Q224 902 346 958 Q435 999 533 999 Z M533 835 Q425 835 360 746 Q285 645 285 490 Q285 326 360 226 Q425 138 533 138 Q642 138 706 226 Q781 327 781 485 Q781 646 706 746 Q640 835 533 835 Z " />
<glyph glyph-name="pi" unicode="&#x3c0;" horiz-adv-x="1097" d="M733 813 L393 813 L393 0 L192 0 L192 813 L55 813 L55 972 L1070 972 L1070 813 L934 813 L934 0 L733 0 L733 813 Z " />
<glyph glyph-name="rho" unicode="&#x3c1;" horiz-adv-x="1072" d="M134 -403 L134 445 Q134 554 143.5 619 Q153 684 178 744 Q237 886 365 951 Q457 998 580 998 Q745 998 845 899 Q993 751 993 489 Q993 217 837 70 Q740 -22 603 -22 Q517 -22 454 11 Q391 44 335 119 L335 -403 L134 -403 Z M565 836 Q469 836 412 766 Q331 665 331 488 Q331 320 407 227 Q470 149 565 149 Q659 149 710 215 Q787 315 787 492 Q787 668 709 769 Q658 836 565 836 Z " />
<glyph glyph-name="uni03C2" unicode="&#x3c2;" horiz-adv-x="955" d="M900 651 L702 651 Q686 747 642.5 791 Q599 835 519 835 Q419 835 361 757 Q285 655 285 485 Q285 284 381 192 Q420 155 459 140.5 Q498 126 609 107 Q725 88 766 63 Q825 27 825 -52 Q825 -107 792 -200 Q759 -293 701 -403 L512 -403 Q628 -179 628 -106 Q628 -77 608 -64.5 Q588 -52 522 -42 Q362 -15 279 41 Q181 108 130 223 Q79 339 79 492 Q79 659 153 789 Q272 999 523 999 Q686 999 783 909.5 Q880 820 900 651 Z " />
<glyph glyph-name="sigma" unicode="&#x3c3;" horiz-adv-x="1084" d="M1049 972 L1049 806 Q1021 805 1007 805 Q965 805 879 810 Q987 685 987 485 Q987 313 910 184 Q841 69 720 14 Q631 -27 533 -27 Q354 -27 230 92 Q159 160 121 255 Q79 364 79 485 Q79 682 178 820 Q307 999 555 999 Q602 999 716 985 Q793 975 828.5 973.5 Q864 972 1049 972 Z M533 835 Q425 835 360 746 Q285 645 285 490 Q285 326 360 226 Q425 138 533 138 Q642 138 706 226 Q781 327 781 485 Q781 646 706 746 Q640 835 533 835 Z " />
<glyph glyph-name="tau" unicode="&#x3c4;" horiz-adv-x="781" d="M491 0 L290 0 L290 813 L7 813 L7 972 L774 972 L774 813 L491 813 L491 0 Z " />
<glyph glyph-name="upsilon" unicode="&#x3c5;" horiz-adv-x="1076" d="M937 972 L937 392 Q937 269 915 198.5 Q893 128 838 73 Q736 -28 538 -28 Q340 -28 239 73 Q183 128 161 198.5 Q139 269 139 392 L139 972 L340 972 L340 378 Q340 266 376 216 Q431 138 538 138 Q657 138 709 230 Q736 277 736 378 L736 972 L937 972 Z " />
<glyph glyph-name="phi" unicode="&#x3c6;" horiz-adv-x="1258" d="M530 132 L530 1000 Q580 1006 607 1006 L641 1006 L675 1006 Q838 1006 965 924 Q1063 861 1118 752 Q1178 632 1178 485 Q1178 267 1052.5 124 Q927 -19 728 -26 L728 -403 L530 -403 L530 -26 Q400 -21 293 48 Q194 112 140 219 Q80 339 80 490 Q80 777 307 932 L399 821 Q279 694 279 488 Q279 270 406 176 Q459 137 530 132 Z M728 842 L728 132 Q810 138 869 190 Q979 287 979 485 Q979 638 910.5 735.5 Q842 833 728 842 Z " />
<glyph glyph-name="chi" unicode="&#x3c7;" horiz-adv-x="906" d="M551 347 L919 -403 L689 -403 L445 125 L203 -403 L-14 -403 L348 331 L35 972 L266 972 L454 544 L648 972 L859 972 L551 347 Z " />
<glyph glyph-name="psi" unicode="&#x3c8;" horiz-adv-x="1265" d="M733 965 L733 142 Q830 151 879 210 Q928 269 928 378 L928 972 L1126 972 L1126 385 Q1126 263 1098.5 193.5 Q1071 124 1003 71 Q903 -7 733 -24 L733 -403 L532 -403 L532 -24 Q362 -7 262 71 Q194 124 166.5 193.5 Q139 263 139 385 L139 972 L337 972 L337 378 Q337 313 347.5 277.5 Q358 242 386 210 Q440 150 532 142 L532 965 L733 965 Z " />
<glyph glyph-name="omega" unicode="&#x3c9;" horiz-adv-x="1240" d="M299 970 L400 817 Q342 768 318 701 Q285 608 285 467 Q285 314 319.5 225.5 Q354 137 414 137 Q463 137 490 193 Q517 249 517 350 L517 579 L722 579 L722 350 Q722 249 749 193 Q776 137 825 137 Q885 137 919.5 225.5 Q954 314 954 468 Q954 636 911 735 Q892 777 847 815 L929 982 Q1001 930 1032.5 893 Q1064 856 1093 792 Q1160 643 1160 461 Q1160 257 1077 118 Q1037 51 970.5 12 Q904 -27 832 -27 Q754 -27 702.5 8 Q651 43 620 116 Q606 84 592 62 Q566 21 516 -3 Q466 -27 407 -27 Q258 -27 168.5 108.5 Q79 244 79 470 Q79 749 220 901 Q247 930 299 970 Z " />
<glyph glyph-name="iotadieresis" unicode="&#x3ca;" horiz-adv-x="495" d="M145 972 L350 972 L350 0 L145 0 L145 972 Z M95 1387 Q144 1387 179 1351.5 Q214 1316 214 1266 Q214 1216 179 1181 Q144 1146 94 1146 Q44 1146 8.5 1181 Q-27 1216 -27 1266 Q-27 1317 8.5 1352 Q44 1387 95 1387 Z M404 1387 Q453 1387 488 1351.5 Q523 1316 523 1266 Q523 1217 488 1181.5 Q453 1146 403 1146 Q353 1146 317.5 1181.5 Q282 1217 282 1266 Q282 1317 317.5 1352 Q353 1387 404 1387 Z " />
<glyph glyph-name="upsilondieresis" unicode="&#x3cb;" horiz-adv-x="1076" d="M937 972 L937 392 Q937 269 915 198.5 Q893 128 838 73 Q736 -28 538 -28 Q340 -28 239 73 Q183 128 161 198.5 Q139 269 139 392 L139 972 L340 972 L340 378 Q340 266 376 216 Q431 138 538 138 Q657 138 709 230 Q736 277 736 378 L736 972 L937 972 Z M362 1391 Q413 1391 449 1354.5 Q485 1318 485 1267 Q485 1215 448.5 1178.5 Q412 1142 361 1142 Q309 1142 272.5 1178.5 Q236 1215 236 1266 Q236 1319 272.5 1355 Q309 1391 362 1391 Z M716 1391 Q767 1391 803 1354.5 Q839 1318 839 1267 Q839 1215 802.5 1178.5 Q766 1142 715 1142 Q663 1142 626.5 1178.5 Q590 1215 590 1266 Q590 1319 626.5 1355 Q663 1391 716 1391 Z " />
<glyph glyph-name="omicrontonos" unicode="&#x3cc;" horiz-adv-x="1066" d="M533 999 Q711 999 836 879 Q907 812 944 715 Q987 606 987 485 Q987 313 910 184 Q841 69 720 14 Q631 -27 534 -27 Q354 -27 230 92 Q79 236 79 492 Q79 656 156 787 Q224 902 346 958 Q435 999 533 999 Z M533 835 Q425 835 360 746 Q285 645 285 490 Q285 326 360 226 Q425 138 533 138 Q642 138 706 226 Q781 327 781 485 Q781 646 706 746 Q640 835 533 835 Z M612 1103 L454 1103 L432 1447 L634 1447 L612 1103 Z " />
<glyph glyph-name="upsilontonos" unicode="&#x3cd;" horiz-adv-x="1076" d="M937 972 L937 392 Q937 269 915 198.5 Q893 128 838 73 Q736 -28 538 -28 Q340 -28 239 73 Q183 128 161 198.5 Q139 269 139 392 L139 972 L340 972 L340 378 Q340 266 376 216 Q431 138 538 138 Q657 138 709 230 Q736 277 736 378 L736 972 L937 972 Z M617 1103 L459 1103 L437 1447 L639 1447 L617 1103 Z " />
<glyph glyph-name="omegatonos" unicode="&#x3ce;" horiz-adv-x="1240" d="M700 1103 L542 1103 L520 1447 L722 1447 L700 1103 Z M299 970 L400 817 Q342 768 318 701 Q285 608 285 467 Q285 314 319.5 225.5 Q354 137 414 137 Q463 137 490 193 Q517 249 517 350 L517 579 L722 579 L722 350 Q722 249 749 193 Q776 137 825 137 Q885 137 919.5 225.5 Q954 314 954 468 Q954 636 911 735 Q892 777 847 815 L929 982 Q1001 930 1032.5 893 Q1064 856 1093 792 Q1160 643 1160 461 Q1160 257 1077 118 Q1037 51 970.5 12 Q904 -27 832 -27 Q754 -27 702.5 8 Q651 43 620 116 Q606 84 592 62 Q566 21 516 -3 Q466 -27 407 -27 Q258 -27 168.5 108.5 Q79 244 79 470 Q79 749 220 901 Q247 930 299 970 Z " />
<glyph glyph-name="theta1" unicode="&#x3d1;" horiz-adv-x="1126" d="M18 525 L376 525 L376 298 Q376 220 413 178.5 Q450 137 519 137 Q676 137 744 379 Q783 521 783 777 Q632 777 579 782 Q526 787 461 809 Q353 844 292 926 Q231 1008 231 1118 Q231 1246 317.5 1324 Q404 1402 547 1402 Q897 1402 975 936 L1085 936 L1085 777 L987 776 Q989 757 989 726 Q989 411 890 216 Q767 -29 520 -29 Q351 -29 262.5 59.5 Q174 148 175 314 L176 343 L18 343 L18 525 Z M768 936 Q748 1056 720 1120 Q667 1240 564 1240 Q509 1240 473.5 1203 Q438 1166 438 1108 Q438 1018 516.5 977 Q595 936 768 936 Z " />
<glyph glyph-name="Upsilon1" unicode="&#x3d2;" horiz-adv-x="1108" d="M554 769 Q578 925 670 1070 Q793 1266 994 1391 L1114 1239 Q894 1077 796 912 Q660 682 660 390 L660 0 L448 0 L448 390 Q448 682 312 912 Q214 1077 -7 1239 L113 1391 Q290 1281 407.5 1115 Q525 949 554 769 Z " />
<glyph glyph-name="phi1" unicode="&#x3d5;" horiz-adv-x="1258" d="M728 -403 L530 -403 L530 -26 Q400 -21 293 48 Q195 111 140 219 Q80 338 80 485 Q80 704 205.5 847.5 Q331 991 530 999 L530 1373 L728 1373 L728 999 Q858 994 965 924 Q1063 860 1118 752 Q1178 633 1178 485 Q1178 267 1052.5 124 Q927 -19 728 -26 L728 -403 Z M530 841 Q449 836 389 783 Q279 686 279 485 Q279 333 347.5 236.5 Q416 140 530 132 L530 841 Z M728 841 L728 132 Q810 138 869 189 Q979 287 979 485 Q979 638 910.5 735.5 Q842 833 728 841 Z " />
<glyph glyph-name="uni0400" unicode="&#x400;" horiz-adv-x="1066" d="M704 1492 L547 1492 L204 1800 L466 1800 L704 1492 Z M380 798 L928 798 L928 616 L380 616 L380 182 L995 182 L995 0 L169 0 L169 1365 L977 1365 L977 1184 L380 1184 L380 798 Z " />
<glyph glyph-name="afii10023" unicode="&#x401;" horiz-adv-x="1066" d="M380 798 L928 798 L928 616 L380 616 L380 182 L995 182 L995 0 L169 0 L169 1365 L977 1365 L977 1184 L380 1184 L380 798 Z M390 1774 Q445 1774 484 1734.5 Q523 1695 523 1640 Q523 1584 483.5 1544.5 Q444 1505 389 1505 Q333 1505 293.5 1544.5 Q254 1584 254 1639 Q254 1696 293.5 1735 Q333 1774 390 1774 Z M763 1774 Q818 1774 857 1734.5 Q896 1695 896 1640 Q896 1584 856.5 1544.5 Q817 1505 762 1505 Q706 1505 666.5 1544.5 Q627 1584 627 1639 Q627 1696 666.5 1735 Q706 1774 763 1774 Z " />
<glyph glyph-name="afii10051" unicode="&#x402;" horiz-adv-x="1375" d="M520 806 Q654 896 848 896 Q1087 896 1186 734 Q1235 654 1235 498 L1235 12 L1236 -40 Q1236 -132 1163 -224 Q1101 -302 1021.5 -334 Q942 -366 809 -366 Q795 -366 761 -365 L761 -191 Q785 -192 793 -192 Q916 -192 969 -147.5 Q1022 -103 1022 0 L1022 422 Q1022 572 986 629 Q957 677 912 697.5 Q867 718 793 718 Q611 718 520 618 L520 0 L307 0 L307 1184 L33 1184 L33 1365 L960 1365 L960 1184 L520 1184 L520 806 Z " />
<glyph glyph-name="afii10052" unicode="&#x403;" horiz-adv-x="1016" d="M169 0 L169 1365 L975 1365 L975 1183 L386 1183 L386 0 L169 0 Z M390 1486 L703 1794 L965 1794 L584 1486 L390 1486 Z " />
<glyph glyph-name="afii10053" unicode="&#x404;" horiz-adv-x="1241" d="M314 770 L763 770 L763 595 L314 595 Q325 457 376 356 Q474 159 674 159 Q936 159 967 486 L1158 458 Q1150 307 1080 187 Q957 -25 681 -25 Q434 -25 275 139 Q88 331 88 679 Q88 1056 297 1248 Q452 1390 672 1390 Q868 1390 988 1285.5 Q1108 1181 1136 986 L952 952 Q903 1206 671 1206 Q460 1206 364 984 Q327 899 314 770 Z " />
<glyph glyph-name="afii10054" unicode="&#x405;" horiz-adv-x="1140" d="M1009 987 L805 987 Q798 1074 753 1128 Q687 1206 562 1206 Q473 1206 412 1163 Q340 1111 340 1030 Q340 955 416 908 Q463 879 648 801 Q796 739 858.5 704 Q921 669 960 626 Q1048 530 1048 381 Q1048 180 896 66 Q775 -25 580 -25 Q348 -25 221 94.5 Q94 214 83 442 L288 442 Q299 314 358 248 Q437 159 584 159 Q692 159 763 212 Q831 263 831 346 Q831 434 742 495 Q694 528 518 603 Q309 693 237 759 Q128 861 128 1011 Q128 1201 279 1305 Q401 1390 569 1390 Q817 1390 938 1221 Q1001 1134 1009 987 Z " />
<glyph glyph-name="afii10055" unicode="&#x406;" horiz-adv-x="550" d="M381 0 L168 0 L168 1365 L381 1365 L381 0 Z " />
<glyph glyph-name="afii10056" unicode="&#x407;" horiz-adv-x="550" d="M382 0 L169 0 L169 1365 L382 1365 L382 0 Z M114 1767 Q166 1767 203.5 1729 Q241 1691 241 1638 Q241 1585 203 1547 Q165 1509 112 1509 Q59 1509 21 1547 Q-17 1585 -17 1638 Q-17 1692 21 1729.5 Q59 1767 114 1767 Z M441 1767 Q493 1767 530.5 1729 Q568 1691 568 1638 Q568 1585 530 1547 Q492 1509 439 1509 Q386 1509 348 1547 Q310 1585 310 1638 Q310 1692 348 1729.5 Q386 1767 441 1767 Z " />
<glyph glyph-name="afii10057" unicode="&#x408;" horiz-adv-x="641" d="M264 1365 L477 1365 L477 276 Q477 106 469.5 45.5 Q462 -15 435 -67 Q350 -231 57 -231 Q40 -231 -6 -229 L-6 -51 Q95 -52 148 -38.5 Q201 -25 229 7 Q252 34 258 80 Q264 126 264 274 L264 1365 Z " />
<glyph glyph-name="afii10058" unicode="&#x409;" horiz-adv-x="1814" d="M1076 833 L1140 833 Q1407 833 1523 794 Q1649 752 1716 636 Q1771 538 1771 412 Q1771 228 1660 118 Q1590 48 1489 24 Q1388 0 1167 0 L864 0 L865 1190 L502 1190 L428 368 Q416 237 408 207 Q347 -9 55 -2 L55 173 Q141 173 181 222 Q221 271 230 388 L309 1365 L1076 1365 L1076 833 Z M1076 182 L1166 182 Q1341 182 1412 202 Q1478 221 1515.5 277 Q1553 333 1553 412 Q1553 568 1438 619 Q1364 652 1164 652 L1076 652 L1076 182 Z " />
<glyph glyph-name="afii10059" unicode="&#x40a;" horiz-adv-x="1920" d="M969 814 L969 1365 L1181 1365 L1181 814 L1245 814 Q1512 814 1628 776 Q1754 735 1820 621 Q1876 525 1876 402 Q1876 223 1765 115 Q1695 47 1594 23.5 Q1493 0 1272 0 L969 0 L969 639 L380 639 L380 0 L169 0 L169 1365 L380 1365 L380 814 L969 814 Z M1181 182 L1271 182 Q1446 182 1517 202 Q1583 220 1620.5 274.5 Q1658 329 1658 406 Q1658 557 1543 607 Q1469 639 1269 639 L1181 639 L1181 182 Z " />
<glyph glyph-name="afii10060" unicode="&#x40b;" horiz-adv-x="1374" d="M1022 0 L1022 422 Q1022 572 986 629 Q957 677 911.5 697.5 Q866 718 793 718 Q611 718 520 618 L520 0 L307 0 L307 1184 L33 1184 L33 1365 L960 1365 L960 1184 L520 1184 L520 806 Q654 896 848 896 Q1088 896 1187 734 Q1235 654 1235 498 L1236 0 L1022 0 Z " />
<glyph glyph-name="afii10061" unicode="&#x40c;" horiz-adv-x="1214" d="M909 1365 L1156 1365 L624 726 L1199 0 L923 0 L383 720 L909 1365 Z M169 1365 L380 1365 L380 0 L169 0 L169 1365 Z M488 1486 L802 1794 L1063 1794 L683 1486 L488 1486 Z " />
<glyph glyph-name="uni040D" unicode="&#x40d;" horiz-adv-x="1368" d="M169 0 L169 1365 L370 1365 L370 375 L998 1268 L998 1365 L1198 1365 L1198 0 L998 0 L998 989 L370 97 L370 0 L169 0 Z M800 1506 L643 1506 L301 1815 L562 1815 L800 1506 Z " />
<glyph glyph-name="afii10062" unicode="&#x40e;" horiz-adv-x="1092" d="M255 1781 L345 1781 Q412 1630 547 1630 Q681 1630 747 1781 L837 1781 Q826 1686 780 1620 Q695 1498 547 1498 Q430 1498 350 1575.5 Q270 1653 255 1781 Z M11 1365 L250 1365 L551 645 L865 1365 L1092 1365 L445 0 L222 0 L438 422 L11 1365 Z " />
<glyph glyph-name="afii10145" unicode="&#x40f;" horiz-adv-x="1350" d="M780 0 L780 -208 L569 -208 L569 0 L169 0 L169 1365 L380 1365 L380 175 L969 175 L969 1365 L1180 1365 L1180 0 L780 0 Z " />
<glyph glyph-name="afii10017" unicode="&#x410;" horiz-adv-x="1198" d="M495 1369 L700 1369 L1167 0 L948 0 L847 320 L350 320 L247 0 L30 0 L495 1369 Z M791 502 L598 1116 L405 502 L791 502 Z " />
<glyph glyph-name="afii10018" unicode="&#x411;" horiz-adv-x="1130" d="M380 1183 L380 833 L444 833 Q711 833 828 794 Q954 752 1021 636 Q1076 538 1076 412 Q1076 228 965 118 Q895 48 794 24 Q693 0 471 0 L168 0 L168 1365 L906 1365 L906 1183 L380 1183 Z M380 182 L470 182 Q645 182 717 202 Q783 221 820.5 277 Q858 333 858 412 Q858 486 827.5 540.5 Q797 595 743 619 Q669 652 468 652 L380 652 L380 182 Z " />
<glyph glyph-name="afii10019" unicode="&#x412;" horiz-adv-x="1168" d="M169 1365 L481 1365 Q708 1365 806 1331 Q913 1295 969 1205 Q1018 1127 1018 1024 Q1018 909 964 838 Q910 767 793 731 Q1091 661 1091 388 Q1091 214 975 108 Q901 41 801.5 20.5 Q702 0 452 0 L169 0 L169 1365 Z M377 798 L497 798 Q649 798 716 831 Q809 876 809 999 Q809 1125 708 1166 Q647 1191 486 1191 L377 1191 L377 798 Z M377 174 L504 174 Q701 174 769 204 Q818 225 845.5 277.5 Q873 330 873 400 Q873 556 746 603 Q676 628 507 628 L377 628 L377 174 Z " />
<glyph glyph-name="afii10020" unicode="&#x413;" horiz-adv-x="1016" d="M169 0 L169 1365 L975 1365 L975 1183 L386 1183 L386 0 L169 0 Z " />
<glyph glyph-name="afii10021" unicode="&#x414;" horiz-adv-x="1252" d="M1071 1365 L1071 175 L1218 175 L1218 -208 L1007 -208 L1007 0 L231 0 L231 -208 L20 -208 L20 175 L68 175 Q208 175 225 388 L303 1365 L1071 1365 Z M860 1190 L497 1190 L422 368 Q411 228 376 175 L860 175 L860 1190 Z " />
<glyph glyph-name="afii10022" unicode="&#x415;" horiz-adv-x="1066" d="M380 798 L928 798 L928 616 L380 616 L380 182 L995 182 L995 0 L169 0 L169 1365 L977 1365 L977 1184 L380 1184 L380 798 Z " />
<glyph glyph-name="afii10024" unicode="&#x416;" horiz-adv-x="1723" d="M756 1365 L967 1365 L967 800 L1052 800 L1473 1365 L1712 1365 L1221 713 L1750 0 L1507 0 L1050 625 L967 625 L967 0 L756 0 L756 625 L673 625 L216 0 L-27 0 L502 713 L11 1365 L250 1365 L671 800 L756 800 L756 1365 Z " />
<glyph glyph-name="afii10025" unicode="&#x417;" horiz-adv-x="1153" d="M288 958 L101 975 Q118 1136 207 1241 Q335 1390 592 1390 Q774 1390 880 1315 Q1029 1211 1029 1016 Q1029 886 965 800.5 Q901 715 784 688 Q869 667 920 625 Q1030 533 1030 376 Q1030 196 898 79 Q780 -25 580 -25 Q403 -25 298 41 Q174 118 122 258 Q98 323 81 457 L271 486 Q303 159 562 159 Q678 159 744 232 Q807 301 807 392 Q807 481 747 540 Q691 595 573 595 L476 595 L476 770 L573 770 Q668 770 731 820 Q806 881 806 991 Q806 1092 744.5 1149 Q683 1206 574 1206 Q337 1206 288 958 Z " />
<glyph glyph-name="afii10026" unicode="&#x418;" horiz-adv-x="1368" d="M169 0 L169 1365 L370 1365 L370 375 L998 1268 L998 1365 L1198 1365 L1198 0 L998 0 L998 989 L370 97 L370 0 L169 0 Z " />
<glyph glyph-name="afii10027" unicode="&#x419;" horiz-adv-x="1368" d="M393 1781 L482 1781 Q549 1630 684 1630 Q818 1630 884 1781 L974 1781 Q963 1686 917 1620 Q832 1498 685 1498 Q568 1498 487.5 1575.5 Q407 1653 393 1781 Z M169 0 L169 1365 L370 1365 L370 375 L998 1268 L998 1365 L1198 1365 L1198 0 L998 0 L998 989 L370 97 L370 0 L169 0 Z " />
<glyph glyph-name="afii10028" unicode="&#x41a;" horiz-adv-x="1214" d="M909 1365 L1156 1365 L624 726 L1199 0 L923 0 L383 720 L909 1365 Z M169 1365 L380 1365 L380 0 L169 0 L169 1365 Z " />
<glyph glyph-name="afii10029" unicode="&#x41b;" horiz-adv-x="1245" d="M1076 1365 L1076 0 L865 0 L865 1190 L503 1190 L428 368 Q416 237 408 206 Q347 -9 55 -2 L55 173 Q141 172 181 221.5 Q221 271 230 388 L309 1365 L1076 1365 Z " />
<glyph glyph-name="afii10030" unicode="&#x41c;" horiz-adv-x="1619" d="M169 1365 L472 1365 L809 228 L1148 1365 L1449 1365 L1449 0 L1255 0 L1255 1133 L916 0 L700 0 L363 1133 L363 0 L169 0 L169 1365 Z " />
<glyph glyph-name="afii10031" unicode="&#x41d;" horiz-adv-x="1350" d="M380 800 L969 800 L969 1365 L1180 1365 L1180 0 L969 0 L969 625 L380 625 L380 0 L169 0 L169 1365 L380 1365 L380 800 Z " />
<glyph glyph-name="afii10032" unicode="&#x41e;" horiz-adv-x="1353" d="M677 1390 Q920 1390 1082 1218 Q1265 1025 1265 683 Q1265 341 1082 147 Q920 -25 678 -25 Q432 -25 271 147 Q88 341 88 693 Q88 797 112.5 905.5 Q137 1014 179 1090 Q266 1253 423 1332 Q539 1390 677 1390 Z M677 1208 Q509 1208 416 1076 Q310 926 310 690 Q310 440 416 289 Q508 157 677 157 Q845 157 937 289 Q1043 440 1043 683 Q1043 929 937 1076 Q842 1208 677 1208 Z " />
<glyph glyph-name="afii10033" unicode="&#x41f;" horiz-adv-x="1350" d="M380 1190 L380 0 L169 0 L169 1365 L1180 1365 L1180 0 L969 0 L969 1190 L380 1190 Z " />
<glyph glyph-name="afii10034" unicode="&#x420;" horiz-adv-x="1119" d="M169 1365 L444 1365 Q711 1365 827 1326 Q954 1284 1020 1168 Q1075 1070 1075 944 Q1075 760 964 650 Q894 581 792.5 556.5 Q691 532 471 532 L380 532 L380 0 L169 0 L169 1365 Z M380 714 L470 714 Q645 714 716 734 Q782 753 819.5 809 Q857 865 857 944 Q857 1100 743 1151 Q668 1184 468 1184 L380 1184 L380 714 Z " />
<glyph glyph-name="afii10035" unicode="&#x421;" horiz-adv-x="1230" d="M1139 952 L952 952 Q903 1206 671 1206 Q508 1206 413 1073 Q310 926 310 681 Q310 435 417 287 Q510 159 673 159 Q936 159 967 487 L1159 487 Q1148 303 1080 187 Q956 -25 681 -25 Q434 -25 275 139 Q88 331 88 679 Q88 1056 297 1248 Q452 1390 672 1390 Q876 1390 998 1276 Q1120 1162 1139 952 Z " />
<glyph glyph-name="afii10036" unicode="&#x422;" horiz-adv-x="992" d="M33 1365 L960 1365 L960 1184 L601 1184 L601 0 L390 0 L390 1184 L33 1184 L33 1365 Z " />
<glyph glyph-name="afii10037" unicode="&#x423;" horiz-adv-x="1092" d="M11 1365 L250 1365 L551 645 L865 1365 L1092 1365 L445 0 L222 0 L438 422 L11 1365 Z " />
<glyph glyph-name="afii10038" unicode="&#x424;" horiz-adv-x="1470" d="M834 112 L834 0 L634 0 L634 112 Q459 113 317 198 Q194 271 130 390 Q61 518 61 683 Q61 904 180 1050 Q258 1145 377 1198.5 Q496 1252 634 1253 L634 1365 L834 1365 L834 1253 Q1009 1252 1151 1167 Q1274 1094 1338 975 Q1407 847 1407 683 Q1407 461 1288 315 Q1210 220 1091 166.5 Q972 113 834 112 Z M634 281 L634 1084 Q518 1083 428 1024 Q269 920 269 683 Q269 502 368.5 392.5 Q468 283 634 281 Z M834 281 Q950 282 1040 341 Q1199 445 1199 683 Q1199 864 1099.5 973 Q1000 1082 834 1084 L834 281 Z " />
<glyph glyph-name="afii10039" unicode="&#x425;" horiz-adv-x="1157" d="M60 1365 L302 1365 L581 895 L863 1365 L1105 1365 L703 712 L1128 0 L887 0 L581 519 L270 0 L30 0 L457 712 L60 1365 Z " />
<glyph glyph-name="afii10040" unicode="&#x426;" horiz-adv-x="1362" d="M1180 175 L1327 175 L1327 -208 L1116 -208 L1116 0 L169 0 L169 1365 L380 1365 L380 175 L969 175 L969 1365 L1180 1365 L1180 175 Z " />
<glyph glyph-name="afii10041" unicode="&#x427;" horiz-adv-x="1219" d="M838 558 Q705 469 510 469 Q270 469 172 631 Q123 711 123 867 L123 1365 L336 1365 L336 943 Q336 793 372 736 Q402 688 447 667.5 Q492 647 565 647 Q747 647 838 747 L838 1365 L1051 1365 L1051 0 L838 0 L838 558 Z " />
<glyph glyph-name="afii10042" unicode="&#x428;" horiz-adv-x="1890" d="M1050 175 L1509 175 L1509 1365 L1720 1365 L1720 0 L169 0 L169 1365 L380 1365 L380 175 L839 175 L839 1365 L1050 1365 L1050 175 Z " />
<glyph glyph-name="afii10043" unicode="&#x429;" horiz-adv-x="1902" d="M1656 0 L169 0 L169 1365 L380 1365 L380 175 L839 175 L839 1365 L1050 1365 L1050 175 L1509 175 L1509 1365 L1720 1365 L1720 175 L1867 175 L1867 -208 L1656 -208 L1656 0 Z " />
<glyph glyph-name="afii10044" unicode="&#x42a;" horiz-adv-x="1318" d="M0 1365 L579 1365 L579 833 L643 833 Q909 833 1026 794 Q1152 752 1219 636 Q1274 538 1274 412 Q1274 228 1163 118 Q1093 48 992 24 Q891 0 670 0 L367 0 L367 1183 L0 1183 L0 1365 Z M579 182 L669 182 Q844 182 915 202 Q981 221 1018.5 277 Q1056 333 1056 412 Q1056 568 942 619 Q867 652 667 652 L579 652 L579 182 Z " />
<glyph glyph-name="afii10045" unicode="&#x42b;" horiz-adv-x="1614" d="M380 833 L444 833 Q711 833 827 794 Q953 753 1020 636 Q1075 538 1075 412 Q1075 228 964 118 Q894 48 793 24 Q692 0 471 0 L168 0 L168 1365 L380 1365 L380 833 Z M380 182 L470 182 Q645 182 716 202 Q782 221 819.5 277 Q857 333 857 412 Q857 568 743 619 Q668 652 468 652 L380 652 L380 182 Z M1445 0 L1232 0 L1232 1365 L1445 1365 L1445 0 Z " />
<glyph glyph-name="afii10046" unicode="&#x42c;" horiz-adv-x="1119" d="M380 833 L444 833 Q711 833 827 794 Q953 753 1020 636 Q1075 538 1075 412 Q1075 228 964 118 Q894 48 793 24 Q692 0 471 0 L168 0 L168 1365 L380 1365 L380 833 Z M380 182 L470 182 Q645 182 716 202 Q782 221 819.5 277 Q857 333 857 412 Q857 568 743 619 Q668 652 468 652 L380 652 L380 182 Z " />
<glyph glyph-name="afii10047" unicode="&#x42d;" horiz-adv-x="1241" d="M927 770 Q912 919 863 1015 Q764 1206 570 1206 Q338 1206 289 952 L105 986 Q135 1143 185 1212 Q246 1297 346.5 1343.5 Q447 1390 569 1390 Q789 1390 944 1248 Q1153 1056 1153 679 Q1153 331 966 139 Q806 -25 560 -25 Q260 -25 142 222 Q96 317 84 452 L274 486 Q304 159 567 159 Q787 159 882 393 Q918 481 927 595 L478 595 L478 770 L927 770 Z " />
<glyph glyph-name="afii10048" unicode="&#x42e;" horiz-adv-x="1833" d="M574 800 Q598 1003 684 1135 Q769 1265 902 1332 Q1018 1390 1155 1390 Q1399 1390 1561 1218 Q1744 1024 1744 682 Q1744 341 1561 147 Q1399 -25 1155 -25 Q966 -25 821 83 Q591 255 568 625 L380 625 L380 0 L169 0 L169 1365 L380 1365 L380 800 L574 800 Z M1156 1208 Q988 1208 895 1076 Q789 926 789 689 Q789 439 895 289 Q987 157 1156 157 Q1324 157 1416 289 Q1522 440 1522 682 Q1522 929 1416 1076 Q1321 1208 1156 1208 Z " />
<glyph glyph-name="afii10049" unicode="&#x42f;" horiz-adv-x="1192" d="M1023 1365 L1023 0 L812 0 L812 550 L602 550 L291 0 L42 0 L378 586 Q118 691 118 961 Q118 1115 206 1220 Q298 1329 470 1353 Q561 1365 729 1365 L1023 1365 Z M812 732 L812 1184 L728 1184 Q591 1184 538.5 1178 Q486 1172 443 1150 Q336 1098 336 963 Q336 888 371 833.5 Q406 779 469 757 Q538 732 717 732 L812 732 Z " />
<glyph glyph-name="afii10065" unicode="&#x430;" horiz-adv-x="1014" d="M318 698 L124 698 Q140 834 222 904 Q328 994 520 994 Q643 994 727 954.5 Q811 915 842 843 Q873 771 873 613 L873 234 Q873 71 903 0 L717 0 Q702 56 700 120 Q620 -22 422 -22 Q282 -22 194 41 Q90 115 90 255 Q90 463 313 547 Q419 587 678 632 L678 659 Q678 744 650 779 Q608 831 508 831 Q343 831 318 698 Z M678 493 Q466 461 391 419 Q296 366 296 278 Q296 215 342.5 176 Q389 137 462 137 Q594 137 649 239 Q678 292 678 418 L678 493 Z " />
<glyph glyph-name="afii10066" unicode="&#x431;" horiz-adv-x="1066" d="M275 858 Q319 917 362 944 Q449 1000 567 1000 Q739 1000 848 884 Q988 734 988 487 Q988 236 837 92 Q712 -27 534 -27 Q357 -27 233 92 Q150 171 114.5 285.5 Q79 400 79 588 Q79 795 120 967 Q161 1139 234 1238 Q296 1322 371 1360.5 Q446 1399 548 1399 Q585 1399 697 1381 Q732 1375 762 1375 Q818 1375 868 1401 L868 1237 Q820 1212 747 1212 Q717 1212 673 1221 Q601 1235 556 1235 Q419 1235 348 1093 Q299 997 275 858 Z M534 836 Q426 836 361 747 Q286 646 286 490 Q286 327 361 226 Q426 138 534 138 Q643 138 707 226 Q782 327 782 486 Q782 647 707 747 Q641 836 534 836 Z " />
<glyph glyph-name="afii10067" unicode="&#x432;" horiz-adv-x="927" d="M345 587 L426 587 Q509 587 546 606 Q607 637 607 712 Q607 771 571.5 794 Q536 817 445 817 L345 817 L345 587 Z M345 155 L404 155 Q521 155 564 174 Q639 206 639 295 Q639 367 596 399.5 Q553 432 458 432 L345 432 L345 155 Z M632 522 Q708 504 750 475 Q845 410 845 276 Q845 153 762 77 Q709 29 638 14.5 Q567 0 388 0 L144 0 L144 972 L429 972 Q599 972 663 952 Q733 931 773 874 Q813 817 813 738 Q813 568 632 522 Z " />
<glyph glyph-name="afii10068" unicode="&#x433;" horiz-adv-x="747" d="M145 972 L706 972 L706 813 L350 813 L350 0 L145 0 L145 972 Z " />
<glyph glyph-name="afii10069" unicode="&#x434;" horiz-adv-x="1065" d="M236 972 L912 972 L912 159 L1024 159 L1024 -208 L823 -208 L823 0 L235 0 L235 -208 L34 -208 L34 159 L64 159 Q178 159 190 327 L236 972 Z M343 159 L711 159 L711 813 L420 813 L370 263 Q364 190 343 159 Z " />
<glyph glyph-name="afii10070" unicode="&#x435;" horiz-adv-x="1026" d="M946 442 L282 442 Q287 315 336 240 Q403 138 539 138 Q682 138 745 266 L926 253 Q895 149 826 81 Q718 -27 534 -27 Q363 -27 246 69 Q79 206 79 474 Q79 657 156 791 Q276 999 527 999 Q732 999 848 842 Q947 707 947 486 Q947 473 946 442 Z M741 592 Q712 838 522 838 Q336 838 288 592 L741 592 Z " />
<glyph glyph-name="afii10072" unicode="&#x436;" horiz-adv-x="1299" d="M552 972 L746 972 L746 589 L800 589 L1071 972 L1282 972 L964 527 L1312 0 L1091 0 L800 430 L746 430 L746 0 L552 0 L552 430 L498 430 L207 0 L-14 0 L334 527 L16 972 L226 972 L498 589 L552 589 L552 972 Z " />
<glyph glyph-name="afii10073" unicode="&#x437;" horiz-adv-x="938" d="M287 673 L90 690 Q112 783 139.5 832 Q167 881 218 921 Q319 999 483 999 Q635 999 729 936 Q840 861 840 717 Q840 627 789.5 567.5 Q739 508 645 489 Q744 474 791 438 Q869 378 869 268 Q869 136 765 53 Q663 -27 487 -27 Q351 -27 269 16 Q154 76 100 219 Q81 270 81 309 L276 328 Q277 322 278 319 Q291 261 303.5 236.5 Q316 212 344 187 Q397 141 482 141 Q564 141 613.5 179.5 Q663 218 663 282 Q663 347 620.5 375.5 Q578 404 480 404 L396 404 L396 563 L472 563 Q521 563 545 570 Q569 577 593 598 Q634 635 634 699 Q634 762 589.5 798.5 Q545 835 469 835 Q391 835 350 798.5 Q309 762 287 673 Z " />
<glyph glyph-name="afii10074" unicode="&#x438;" horiz-adv-x="1085" d="M740 0 L740 633 L345 80 L345 0 L144 0 L144 972 L345 972 L345 341 L740 893 L740 972 L941 972 L941 0 L740 0 Z " />
<glyph glyph-name="afii10075" unicode="&#x439;" horiz-adv-x="1085" d="M277 1396 L372 1396 Q428 1246 546 1246 Q657 1246 713 1396 L808 1396 Q798 1300 757 1231 Q684 1109 548 1109 Q438 1109 364 1187.5 Q290 1266 277 1396 Z M740 0 L740 633 L345 80 L345 0 L144 0 L144 972 L345 972 L345 341 L740 893 L740 972 L941 972 L941 0 L740 0 Z " />
<glyph glyph-name="afii10076" unicode="&#x43a;" horiz-adv-x="1046" d="M731 972 L974 972 L590 527 L1005 0 L733 0 L350 523 L731 972 Z M145 972 L346 972 L346 0 L145 0 L145 972 Z " />
<glyph glyph-name="afii10077" unicode="&#x43b;" horiz-adv-x="1042" d="M697 813 L406 813 L356 261 Q349 181 332 141 Q272 -2 54 -2 L35 -2 L35 158 Q105 157 137.5 195.5 Q170 234 176 326 L223 972 L898 972 L898 0 L697 0 L697 813 Z " />
<glyph glyph-name="afii10078" unicode="&#x43c;" horiz-adv-x="1283" d="M725 0 L558 0 L331 680 L331 0 L144 0 L144 972 L398 972 L642 233 L885 972 L1139 972 L1139 0 L952 0 L952 680 L725 0 Z " />
<glyph glyph-name="afii10079" unicode="&#x43d;" horiz-adv-x="1085" d="M740 430 L345 430 L345 0 L144 0 L144 972 L345 972 L345 589 L740 589 L740 972 L941 972 L941 0 L740 0 L740 430 Z " />
<glyph glyph-name="afii10080" unicode="&#x43e;" horiz-adv-x="1066" d="M533 999 Q711 999 836 879 Q907 812 944 715 Q987 606 987 485 Q987 313 910 184 Q841 69 720 14 Q631 -27 534 -27 Q354 -27 230 92 Q79 236 79 492 Q79 656 156 787 Q224 902 346 958 Q435 999 533 999 Z M533 835 Q425 835 360 746 Q285 645 285 490 Q285 326 360 226 Q425 138 533 138 Q642 138 706 226 Q781 327 781 485 Q781 646 706 746 Q640 835 533 835 Z " />
<glyph glyph-name="afii10081" unicode="&#x43f;" horiz-adv-x="1085" d="M740 813 L345 813 L345 0 L144 0 L144 972 L941 972 L941 0 L740 0 L740 813 Z " />
<glyph glyph-name="afii10082" unicode="&#x440;" horiz-adv-x="1084" d="M145 -403 L145 672 Q145 886 127 972 L317 972 Q335 919 335 844 Q432 994 606 994 Q755 994 856 896 Q1004 751 1004 489 Q1004 217 848 70 Q751 -22 614 -22 Q528 -22 465 11 Q402 44 346 119 L346 -403 L145 -403 Z M576 823 Q480 823 423 754 Q342 656 342 482 Q342 317 418 225 Q481 149 576 149 Q670 149 721 214 Q798 312 798 486 Q798 658 721 757 Q669 823 576 823 Z " />
<glyph glyph-name="afii10083" unicode="&#x441;" horiz-adv-x="987" d="M900 651 L702 651 Q686 747 642.5 791 Q599 835 519 835 Q419 835 361 757 Q285 655 285 483 Q285 321 347.5 229 Q410 137 520 137 Q633 137 681 228 Q701 267 711 340 L907 340 Q897 190 808 88 Q707 -27 521 -27 Q341 -27 222 90 Q79 231 79 484 Q79 752 240 899 Q351 999 523 999 Q686 999 783 909.5 Q880 820 900 651 Z " />
<glyph glyph-name="afii10084" unicode="&#x442;" horiz-adv-x="781" d="M491 0 L290 0 L290 813 L7 813 L7 972 L774 972 L774 813 L491 813 L491 0 Z " />
<glyph glyph-name="afii10085" unicode="&#x443;" horiz-adv-x="964" d="M33 972 L247 972 L485 199 L732 972 L942 972 L617 47 Q567 -96 552.5 -131.5 Q538 -167 508 -219 Q398 -410 121 -410 Q102 -410 56 -408 L56 -232 Q81 -233 92 -233 Q216 -233 272 -192 Q328 -151 373 -28 L33 972 Z " />
<glyph glyph-name="afii10086" unicode="&#x444;" horiz-adv-x="1422" d="M611 1373 L810 1373 L810 903 Q837 949 889.5 974 Q942 999 1009 999 Q1171 999 1256.5 865.5 Q1342 732 1342 480 Q1342 303 1298 188 Q1258 84 1184 29 Q1110 -26 1009 -26 Q941 -26 889 -1 Q837 24 810 69 L810 -403 L611 -403 L611 69 Q585 25 532.5 -0.5 Q480 -26 412 -26 Q251 -26 165 105 Q79 236 79 480 Q79 665 125 787 Q206 999 412 999 Q479 999 532 973.5 Q585 948 611 903 L611 1373 Z M810 528 L810 486 L810 445 Q810 131 970 131 Q1054 131 1098.5 221.5 Q1143 312 1143 482 Q1143 659 1099 750.5 Q1055 842 970 842 Q810 842 810 528 Z M611 445 L611 486 L611 528 Q611 842 451 842 Q366 842 322 750.5 Q278 659 278 482 Q278 312 322.5 221.5 Q367 131 451 131 Q611 131 611 445 Z " />
<glyph glyph-name="afii10087" unicode="&#x445;" horiz-adv-x="969" d="M56 972 L295 972 L485 665 L678 972 L919 972 L609 518 L962 0 L718 0 L485 359 L250 0 L7 0 L363 518 L56 972 Z " />
<glyph glyph-name="afii10088" unicode="&#x446;" horiz-adv-x="1093" d="M851 0 L144 0 L144 972 L345 972 L345 159 L740 159 L740 972 L941 972 L941 159 L1052 159 L1052 -208 L851 -208 L851 0 Z " />
<glyph glyph-name="afii10089" unicode="&#x447;" horiz-adv-x="1001" d="M656 366 Q621 336 601 325 Q528 285 393 285 Q183 285 112 427 Q82 488 82 603 L82 972 L283 972 L283 661 Q283 591 292 559.5 Q301 528 328 502 Q353 478 384.5 469 Q416 460 473 460 Q586 460 656 557 L656 972 L857 972 L857 0 L656 0 L656 366 Z " />
<glyph glyph-name="afii10090" unicode="&#x448;" horiz-adv-x="1487" d="M1141 159 L1141 972 L1342 972 L1342 0 L144 0 L144 972 L345 972 L345 159 L642 159 L642 972 L843 972 L843 159 L1141 159 Z " />
<glyph glyph-name="afii10091" unicode="&#x449;" horiz-adv-x="1494" d="M1252 0 L144 0 L144 972 L345 972 L345 159 L642 159 L642 972 L843 972 L843 159 L1141 159 L1141 972 L1342 972 L1342 159 L1453 159 L1453 -208 L1252 -208 L1252 0 Z " />
<glyph glyph-name="afii10092" unicode="&#x44a;" horiz-adv-x="1008" d="M266 813 L0 813 L0 972 L467 972 L467 631 L598 631 Q967 631 967 324 Q967 158 852 67 Q803 29 746 14.5 Q689 0 587 0 L266 0 L266 813 Z M467 472 L467 159 L548 159 Q640 159 685 182 Q761 220 761 319 Q761 401 716 436.5 Q671 472 565 472 L467 472 Z " />
<glyph glyph-name="afii10093" unicode="&#x44b;" horiz-adv-x="1307" d="M957 972 L1162 972 L1162 0 L957 0 L957 972 Z M144 0 L144 972 L345 972 L345 631 L476 631 Q845 631 845 324 Q845 158 730 67 Q681 29 624 14.5 Q567 0 465 0 L144 0 Z M345 472 L345 159 L426 159 Q518 159 563 182 Q639 220 639 319 Q639 401 594 436.5 Q549 472 443 472 L345 472 Z " />
<glyph glyph-name="afii10094" unicode="&#x44c;" horiz-adv-x="886" d="M144 0 L144 972 L345 972 L345 631 L476 631 Q845 631 845 324 Q845 158 730 67 Q681 29 624 14.5 Q567 0 465 0 L144 0 Z M345 472 L345 159 L426 159 Q518 159 563 182 Q639 220 639 319 Q639 401 594 436.5 Q549 472 443 472 L345 472 Z " />
<glyph glyph-name="afii10095" unicode="&#x44d;" horiz-adv-x="987" d="M700 563 Q661 835 471 835 Q395 835 354 798 Q313 761 292 673 L95 690 Q117 782 143.5 830.5 Q170 879 222 921 Q320 999 467 999 Q639 999 750 899 Q911 753 911 484 Q911 231 768 90 Q649 -27 469 -27 Q327 -27 229 45 Q160 96 129 167 Q106 219 86 302 L282 319 Q298 228 340 185 Q387 137 469 137 Q664 137 700 404 L406 404 L406 563 L700 563 Z " />
<glyph glyph-name="afii10096" unicode="&#x44e;" horiz-adv-x="1482" d="M503 589 Q525 723 594 820 Q659 911 762 958 Q851 999 949 999 Q1127 999 1251 879 Q1322 811 1360 715 Q1402 606 1402 485 Q1402 313 1325 184 Q1256 69 1135 14 Q1046 -27 949 -27 Q812 -27 700 48 Q523 167 497 430 L345 430 L345 0 L144 0 L144 972 L345 972 L345 589 L503 589 Z M948 835 Q841 835 776 746 Q701 645 701 490 Q701 327 776 226 Q840 138 949 138 Q1057 138 1121 226 Q1196 327 1196 485 Q1196 646 1121 746 Q1055 835 948 835 Z " />
<glyph glyph-name="afii10097" unicode="&#x44f;" horiz-adv-x="951" d="M268 374 Q105 451 105 648 Q105 814 221 905 Q269 943 326 957.5 Q383 972 485 972 L806 972 L806 0 L605 0 L605 341 L474 341 Q458 341 453 341 L292 0 L82 0 L268 374 Z M605 500 L605 813 L524 813 Q432 813 387 791 Q311 752 311 653 Q311 571 356 535.5 Q401 500 507 500 L605 500 Z " />
<glyph glyph-name="uni0450" unicode="&#x450;" horiz-adv-x="1026" d="M665 1121 L508 1121 L166 1430 L427 1430 L665 1121 Z M946 442 L282 442 Q287 315 336 240 Q403 138 539 138 Q682 138 745 266 L926 253 Q895 149 826 81 Q718 -27 534 -27 Q363 -27 246 69 Q79 206 79 474 Q79 657 156 791 Q276 999 527 999 Q732 999 848 842 Q947 707 947 486 Q947 473 946 442 Z M741 592 Q712 838 522 838 Q336 838 288 592 L741 592 Z " />
<glyph glyph-name="afii10071" unicode="&#x451;" horiz-adv-x="1026" d="M946 442 L282 442 Q287 315 336 240 Q403 138 539 138 Q682 138 745 266 L926 253 Q895 149 826 81 Q718 -27 534 -27 Q363 -27 246 69 Q79 206 79 474 Q79 657 156 791 Q276 999 527 999 Q732 999 848 842 Q947 707 947 486 Q947 473 946 442 Z M741 592 Q712 838 522 838 Q336 838 288 592 L741 592 Z M358 1391 Q409 1391 445 1354.5 Q481 1318 481 1267 Q481 1215 444.5 1178.5 Q408 1142 357 1142 Q305 1142 268.5 1178.5 Q232 1215 232 1266 Q232 1319 268.5 1355 Q305 1391 358 1391 Z M712 1391 Q763 1391 799 1354.5 Q835 1318 835 1267 Q835 1215 798.5 1178.5 Q762 1142 711 1142 Q659 1142 622.5 1178.5 Q586 1215 586 1266 Q586 1319 622.5 1355 Q659 1391 712 1391 Z " />
<glyph glyph-name="afii10099" unicode="&#x452;" horiz-adv-x="1086" d="M346 861 Q454 994 625 994 Q712 994 786 958.5 Q860 923 899 863 Q928 816 937.5 757.5 Q947 699 947 560 L948 0 Q948 -186 846 -284 Q790 -337 716.5 -360 Q643 -383 529 -383 Q514 -383 481 -382 L481 -208 Q504 -209 513 -209 Q639 -209 691.5 -161.5 Q744 -114 745 0 L746 526 Q746 632 734 684 Q721 744 675 780 Q629 816 565 816 Q508 816 459 787 Q410 758 382 707 Q346 643 346 515 L346 0 L145 0 L145 1100 L22 1100 L22 1237 L145 1237 L145 1373 L346 1373 L346 1237 L619 1237 L619 1100 L346 1100 L346 861 Z " />
<glyph glyph-name="afii10100" unicode="&#x453;" horiz-adv-x="747" d="M145 972 L706 972 L706 813 L350 813 L350 0 L145 0 L145 972 Z M274 1106 L512 1415 L773 1415 L431 1106 L274 1106 Z " />
<glyph glyph-name="afii10101" unicode="&#x454;" horiz-adv-x="987" d="M290 563 L584 563 L584 404 L290 404 Q326 137 521 137 Q602 137 646.5 180 Q691 223 708 319 L904 302 Q879 197 848.5 141.5 Q818 86 761 45 Q663 -27 521 -27 Q341 -27 222 90 Q79 231 79 484 Q79 753 240 899 Q351 999 523 999 Q670 999 768 921 Q820 879 846.5 830.5 Q873 782 895 690 L698 673 Q676 761 637 796 Q593 835 519 835 Q329 835 290 563 Z " />
<glyph glyph-name="afii10102" unicode="&#x455;" horiz-adv-x="949" d="M849 689 L655 689 Q646 759 616 792 Q571 843 479 843 Q409 843 364 808.5 Q319 774 319 720 Q319 667 360 640.5 Q401 614 551 570 Q662 538 717.5 511.5 Q773 485 803 451 Q861 384 861 281 Q861 142 767 59 Q668 -27 485 -27 Q290 -27 187 60.5 Q84 148 84 313 L275 313 Q282 230 317 191 Q371 130 480 130 Q562 130 610 166.5 Q658 203 658 266 Q658 326 594 359 Q558 378 382 431 Q236 475 182 531 Q118 598 118 701 Q118 836 221 919 Q321 999 482 999 Q649 999 744.5 918.5 Q840 838 849 689 Z " />
<glyph glyph-name="afii10103" unicode="&#x456;" horiz-adv-x="495" d="M145 972 L350 972 L350 0 L145 0 L145 972 Z M251 1389 Q305 1389 339.5 1353.5 Q374 1318 374 1261 Q374 1205 339 1170 Q304 1135 247 1135 Q191 1135 156 1169.5 Q121 1204 121 1259 Q121 1316 157.5 1352.5 Q194 1389 251 1389 Z " />
<glyph glyph-name="afii10104" unicode="&#x457;" horiz-adv-x="495" d="M145 972 L350 972 L350 0 L145 0 L145 972 Z M95 1387 Q144 1387 179 1351.5 Q214 1316 214 1266 Q214 1216 179 1181 Q144 1146 94 1146 Q44 1146 8.5 1181 Q-27 1216 -27 1266 Q-27 1317 8.5 1352 Q44 1387 95 1387 Z M404 1387 Q453 1387 488 1351.5 Q523 1316 523 1266 Q523 1217 488 1181.5 Q453 1146 403 1146 Q353 1146 317.5 1181.5 Q282 1217 282 1266 Q282 1317 317.5 1352 Q353 1387 404 1387 Z " />
<glyph glyph-name="afii10105" unicode="&#x458;" horiz-adv-x="537" d="M191 972 L396 972 L396 114 Q396 -45 383.5 -113 Q371 -181 331 -238 Q279 -311 195 -345 Q111 -379 -22 -379 Q-38 -379 -70 -378 L-70 -204 Q-48 -205 -38 -205 Q125 -205 168 -118 Q183 -88 186.5 -53.5 Q190 -19 191 113 L191 972 Z M297 1388 Q352 1388 386 1353 Q420 1318 420 1261 Q420 1205 385 1170 Q350 1135 293 1135 Q237 1135 202 1169.5 Q167 1204 167 1259 Q167 1316 203 1352 Q239 1388 297 1388 Z " />
<glyph glyph-name="afii10106" unicode="&#x459;" horiz-adv-x="1439" d="M898 972 L898 631 L1029 631 Q1398 631 1398 324 Q1398 158 1282 67 Q1234 29 1176.5 14.5 Q1119 0 1018 0 L697 0 L697 813 L405 813 L356 261 Q349 181 332 141 Q271 -2 54 -2 L34 -2 L34 158 Q104 157 136.5 195.5 Q169 234 176 325 L222 972 L898 972 Z M898 472 L898 159 L978 159 Q1071 159 1115 182 Q1192 220 1192 319 Q1192 401 1146.5 436.5 Q1101 472 996 472 L898 472 Z " />
</font>
</svg>
